999
DXF file: aisin_w50_1.dxf
999
Pro/ENGINEER 2013240 by Parametric Technology Corporation
  0
SECTION
  2
HEADER
  9
$ACADVER
  1
AC1012
  9
$DWGCODEPAGE
  3
ANSI_1252
  9
$EXTMAX
 10
297.0
 20
210.0
 30
0.0
  9
$EXTMIN
 10
0.0
 20
0.0
 30
0.0
  9
$LIMMIN
 10
0.0
 20
0.0
  9
$LIMMAX
 10
297.0
 20
210.0
  9
$VIEWCTR
 10
148.5
 20
105.0
  9
$VIEWSIZE
 40
210.0
  9
$CLAYER
  8
0
  9
$LTSCALE
 40
16.335
  9
$CELTYPE
  6
BYLAYER
  9
$DIMSCALE
 40
1.0
  9
$DIMASZ
 40
2.2
  9
$DIMEXO
 40
0.7
  9
$DIMDLI
 40
11.286
  9
$DIMEXE
 40
0.7
  9
$DIMCEN
 40
2.673
  9
$DIMLFAC
 40
1.0
  9
$DIMBLK
  1
_FILLED
  9
$DIMTXT
 40
2.4
  9
$DIMTOL
 70
1
  9
$DIMLIM
 70
0
  9
$DIMTFAC
 40
1.0
  9
$DIMTP
 40
0.001
  9
$DIMTM
 40
0.001
  9
$DIMGAP
 40
0.625
  9
$PDMODE
 70
3
  9
$PDSIZE
 40
1.0
  9
$HANDSEED
  5
28B
  9
$TILEMODE
 70
1
  0
ENDSEC
  0
SECTION
  2
CLASSES
  0
ENDSEC
  0
SECTION
  2
TABLES
  0
TABLE
  2
VPORT
  5
8
100
AcDbSymbolTable
 70
2
  0
VPORT
  5
1F4
100
AcDbSymbolTableRecord
100
AcDbViewportTableRecord
  2
*ACTIVE
 70
0
 10
0.0
 20
0.0
 11
1.0
 21
1.0
 12
148.5
 22
105.0
 13
0.0
 23
0.0
 14
1.0
 24
1.0
 15
0.0
 25
0.0
 16
0.0
 26
0.0
 36
1.0
 17
0.0
 27
0.0
 37
0.0
 40
210.0
 41
1.4142857143
 42
50.0
 43
0.0
 44
0.0
 50
0.0
 51
0.0
 71
0
 72
100
 73
1
 74
1
 75
0
 76
0
 77
0
 78
0
  0
ENDTAB
  0
TABLE
  2
LTYPE
  5
5
100
AcDbSymbolTable
 70
6
  0
LTYPE
  5
14
100
AcDbSymbolTableRecord
100
AcDbLinetypeTableRecord
  2
BYBLOCK
 70
0
  3

 72
65
 73
0
 40
0.0
  0
LTYPE
  5
15
100
AcDbSymbolTableRecord
100
AcDbLinetypeTableRecord
  2
BYLAYER
 70
0
  3

 72
65
 73
0
 40
0.0
  0
LTYPE
  5
16
100
AcDbSymbolTableRecord
100
AcDbLinetypeTableRecord
  2
CONTINUOUS
 70
64
  3
Solid line
 72
65
 73
0
 40
0.0
  0
LTYPE
  5
1F5
100
AcDbSymbolTableRecord
100
AcDbLinetypeTableRecord
  2
CENTER
 70
64
  3
____ _ ____ _ ____ _ ____ _ ____ _ ____ _ ____
 72
65
 73
4
 40
0.6
 49
0.375
 74
0
 49
-0.075
 74
0
 49
0.075
 74
0
 49
-0.075
 74
0
  0
LTYPE
  5
1F6
100
AcDbSymbolTableRecord
100
AcDbLinetypeTableRecord
  2
HIDDEN
 70
64
  3
- - - - - - - - - - - - - - - - - - - -
 72
65
 73
2
 40
0.2
 49
0.1
 74
0
 49
-0.1
 74
0
  0
LTYPE
  5
1F7
100
AcDbSymbolTableRecord
100
AcDbLinetypeTableRecord
  2
PHANTOM
 70
64
  3
_____ _ _ _____ _ _ _____ _ _ _____
 72
65
 73
6
 40
0.8
 49
0.45
 74
0
 49
-0.05
 74
0
 49
0.1
 74
0
 49
-0.05
 74
0
 49
0.1
 74
0
 49
-0.05
 74
0
  0
LTYPE
  5
1F8
100
AcDbSymbolTableRecord
100
AcDbLinetypeTableRecord
  2
DOT
 70
64
  3
. . . . . . . . . . . . . . . . . . . .
 72
65
 73
2
 40
0.2
 49
0.1
 74
0
 49
-0.1
 74
0
  0
LTYPE
  5
1F9
100
AcDbSymbolTableRecord
100
AcDbLinetypeTableRecord
  2
DASHED
 70
64
  3
- - - - - - - - - - - - - - - - - - - -
 72
65
 73
2
 40
0.2
 49
0.1
 74
0
 49
-0.1
 74
0
  0
ENDTAB
  0
TABLE
  2
LAYER
  5
2
100
AcDbSymbolTable
 70
36
  0
LAYER
  5
10
100
AcDbSymbolTableRecord
100
AcDbLayerTableRecord
  2
0
 70
0
 62
7
  6
CONTINUOUS
  0
LAYER
  5
1FA
100
AcDbSymbolTableRecord
100
AcDbLayerTableRecord
  2
DEFAULT_1
 70
0
 62
7
  6
CENTER
  0
LAYER
  5
1FB
100
AcDbSymbolTableRecord
100
AcDbLayerTableRecord
  2
DEFAULT_2
 70
0
 62
8
  6
HIDDEN
  0
LAYER
  5
1FC
100
AcDbSymbolTableRecord
100
AcDbLayerTableRecord
  2
DEFAULT_3
 70
0
 62
7
  6
PHANTOM
  0
LAYER
  5
1FD
100
AcDbSymbolTableRecord
100
AcDbLayerTableRecord
  2
AXIS
 70
0
 62
7
  6
CONTINUOUS
  0
LAYER
  5
1FE
100
AcDbSymbolTableRecord
100
AcDbLayerTableRecord
  2
CSYS
 70
0
 62
7
  6
CONTINUOUS
  0
LAYER
  5
1FF
100
AcDbSymbolTableRecord
100
AcDbLayerTableRecord
  2
CURVES
 70
0
 62
7
  6
CONTINUOUS
  0
LAYER
  5
200
100
AcDbSymbolTableRecord
100
AcDbLayerTableRecord
  2
DATUM
 70
0
 62
7
  6
CONTINUOUS
  0
LAYER
  5
201
100
AcDbSymbolTableRecord
100
AcDbLayerTableRecord
  2
R2V
 70
0
 62
7
  6
CONTINUOUS
  0
LAYER
  5
202
100
AcDbSymbolTableRecord
100
AcDbLayerTableRecord
  2
SURF_FIN
 70
0
 62
7
  6
CONTINUOUS
  0
LAYER
  5
203
100
AcDbSymbolTableRecord
100
AcDbLayerTableRecord
  2
WHITE
 70
0
 62
7
  6
CONTINUOUS
  0
LAYER
  5
204
100
AcDbSymbolTableRecord
100
AcDbLayerTableRecord
  2
XSEC_DATUMS
 70
0
 62
7
  6
CONTINUOUS
  0
ENDTAB
  0
TABLE
  2
STYLE
  5
3
100
AcDbSymbolTable
 70
1
  0
STYLE
  5
11
100
AcDbSymbolTableRecord
100
AcDbTextStyleTableRecord
  2
STANDARD
 70
0
 40
0.0
 41
0.85
 50
0.0
 71
0
 42
0.2
  3
txt
  4

  0
STYLE
  5
205
100
AcDbSymbolTableRecord
100
AcDbTextStyleTableRecord
  2
TEXTSTYLE_1
 70
0
 40
0.0
 41
0.8
 50
0.0
 71
0
 42
0.2
  3
gdt
  4

  0
STYLE
  5
206
100
AcDbSymbolTableRecord
100
AcDbTextStyleTableRecord
  2
TEXTSTYLE_2
 70
0
 40
0.0
 41
0.85
 50
0.0
 71
0
 42
0.2
  3
gdt
  4

  0
ENDTAB
  0
TABLE
  2
VIEW
  5
6
100
AcDbSymbolTable
 70
0
  0
ENDTAB
  0
TABLE
  2
UCS
  5
7
100
AcDbSymbolTable
 70
0
  0
ENDTAB
  0
TABLE
  2
APPID
  5
9
100
AcDbSymbolTable
 70
1
  0
APPID
  5
207
100
AcDbSymbolTableRecord
100
AcDbRegAppTableRecord
  2
ACAD
 70
0
  0
ENDTAB
  0
TABLE
  2
BLOCK_RECORD
  5
1
100
AcDbSymbolTable
 70
0
  0
BLOCK_RECORD
  5
1F
100
AcDbSymbolTableRecord
100
AcDbBlockTableRecord
  2
*MODEL_SPACE
  0
BLOCK_RECORD
  5
1B
100
AcDbSymbolTableRecord
100
AcDbBlockTableRecord
  2
*PAPER_SPACE
  0
BLOCK_RECORD
  5
208
100
AcDbSymbolTableRecord
100
AcDbBlockTableRecord
  2
_FILLED
  0
BLOCK_RECORD
  5
209
100
AcDbSymbolTableRecord
100
AcDbBlockTableRecord
  2
*D0
  0
BLOCK_RECORD
  5
20A
100
AcDbSymbolTableRecord
100
AcDbBlockTableRecord
  2
*D1
  0
BLOCK_RECORD
  5
20B
100
AcDbSymbolTableRecord
100
AcDbBlockTableRecord
  2
*D2
  0
ENDTAB
  0
TABLE
  2
DIMSTYLE
  5
A
100
AcDbSymbolTable
 70
1
  0
DIMSTYLE
105
20C
100
AcDbSymbolTableRecord
100
AcDbDimStyleTableRecord
  2
STANDARD
 70
0
  3

  4

  5
_FILLED
  6
_FILLED
  7
_FILLED
 40
1.0
 41
2.2
 42
0.7
 43
0.38
 44
0.7
 45
0.0
 46
0.0
 47
0.001
 48
0.001
140
2.4
141
0.09
142
0.0
143
25.4
144
1.0
145
0.0
146
1.0
147
0.625
 71
1.0
 72
0.0
 73
1
 74
1
 75
0
 76
0
 77
0
 78
8
170
0
171
2
172
0
173
0
174
0
175
0
176
0
177
0
178
0
270
2
271
3
272
3
273
2
274
2
275
0
280
0
281
0
282
0
283
1
284
8
285
0
286
0
287
3
288
0
340
11
  0
DIMSTYLE
105
20D
100
AcDbSymbolTableRecord
100
AcDbDimStyleTableRecord
  2
DIMSTYLE_1
 70
0
  3

  4

  5
_FILLED
  6
_FILLED
  7
_FILLED
 40
1.0
 41
2.2
 42
0.7
 43
0.38
 44
0.7
 45
0.0
 46
0.0
 47
0.001
 48
0.001
140
2.4
141
0.09
142
0.0
143
25.4
144
1.0
145
0.0
146
1.0
147
0.625
 71
0.0
 72
0.0
 73
1
 74
1
 75
0
 76
0
 77
0
 78
8
170
0
171
2
172
0
173
0
174
0
175
0
176
0
177
0
178
0
270
2
271
3
272
3
273
2
274
2
275
0
280
0
281
0
282
0
283
1
284
8
285
0
286
0
287
3
288
0
340
11
  0
DIMSTYLE
105
20E
100
AcDbSymbolTableRecord
100
AcDbDimStyleTableRecord
  2
DIMSTYLE_2
 70
0
  3

  4

  5
_FILLED
  6
_FILLED
  7
_FILLED
 40
1.0
 41
2.2
 42
0.7
 43
0.38
 44
0.7
 45
0.0
 46
0.0
 47
0.001
 48
0.001
140
2.4
141
0.09
142
0.0
143
25.4
144
1.0
145
0.0
146
1.0
147
0.72
 71
0.0
 72
0.0
 73
1
 74
1
 75
0
 76
0
 77
0
 78
8
170
0
171
2
172
0
173
0
174
0
175
0
176
0
177
0
178
0
270
2
271
1
272
1
273
2
274
2
275
0
280
0
281
0
282
0
283
1
284
8
285
0
286
0
287
3
288
0
340
11
  0
DIMSTYLE
105
20F
100
AcDbSymbolTableRecord
100
AcDbDimStyleTableRecord
  2
DIMSTYLE_3
 70
0
  3

  4

  5
_FILLED
  6
_FILLED
  7
_FILLED
 40
1.0
 41
2.2
 42
0.7
 43
0.38
 44
0.7
 45
0.0
 46
0.0
 47
0.001
 48
0.001
140
2.4
141
0.09
142
0.0
143
25.4
144
1.0
145
0.0
146
1.0
147
0.72
 71
0.0
 72
0.0
 73
1
 74
1
 75
0
 76
0
 77
0
 78
8
170
0
171
2
172
0
173
0
174
0
175
0
176
0
177
0
178
0
270
2
271
3
272
3
273
2
274
2
275
0
280
0
281
0
282
0
283
1
284
8
285
0
286
0
287
3
288
0
340
11
  0
ENDTAB
  0
ENDSEC
  0
SECTION
  2
BLOCKS
  0
BLOCK
  5
20
100
AcDbEntity
  8
0
100
AcDbBlockBegin
  2
*MODEL_SPACE
 70
0
 10
0.0
 20
0.0
 30
0.0
  3
*MODEL_SPACE
  1

  0
ENDBLK
  5
21
100
AcDbEntity
  8
0
100
AcDbBlockEnd
  0
BLOCK
  5
1C
100
AcDbEntity
  8
0
100
AcDbBlockBegin
  2
*PAPER_SPACE
 70
0
 10
0.0
 20
0.0
 30
0.0
  3
*PAPER_SPACE
  1

  0
ENDBLK
  5
1D
100
AcDbEntity
  8
0
100
AcDbBlockEnd
  0
BLOCK
  5
210
100
AcDbEntity
  8
0
100
AcDbBlockBegin
  2
_FILLED
 70
64
 10
0.0
 20
0.0
  3
_FILLED
  1

  0
SOLID
  5
211
100
AcDbEntity
  8
0
  6
BYBLOCK
 62
0
100
AcDbTrace
 10
0.0
 20
0.0
 11
-1.0
 21
0.1818181818
 12
-1.0
 22
-0.1818181818
 13
-1.0
 23
-0.1818181818
  0
ENDBLK
  5
212
100
AcDbEntity
  8
0
  6
BYBLOCK
 62
0
100
AcDbBlockEnd
  0
BLOCK
  5
213
100
AcDbEntity
  8
0
100
AcDbBlockBegin
 62
2
  6
CONTINUOUS
  2
*D0
 70
65
 10
0.0
 20
0.0
  3
*D0
  1

  0
MTEXT
  5
214
100
AcDbEntity
  8
0
100
AcDbMText
 62
2
  6
CONTINUOUS
  7
TEXTSTYLE_2
 71
2
 72
1
 10
176.1348976295
 20
70.148562679
 30
0.0
 11
1.0
 21
0.0
 31
0.0
  1
{\Fgdt;n}\Ftxt;38.1
 40
2.4
 41
11.36
  0
LINE
  5
215
100
AcDbEntity
  8
0
100
AcDbLine
 62
2
  6
CONTINUOUS
 10
184.9876121988
 20
73.4036548276
 11
179.9501300436
 21
70.868562679
  0
LINE
  5
216
100
AcDbEntity
  8
0
100
AcDbLine
 62
2
  6
CONTINUOUS
 10
150.9542381361
 20
56.2764994913
 11
172.3196652154
 21
67.028562679
  0
INSERT
  5
217
100
AcDbEntity
  8
0
100
AcDbBlockReference
 62
2
  6
CONTINUOUS
  2
_FILLED
 10
184.9876121988
 20
73.4036548276
 41
2.2
 42
2.2
 43
2.2
 50
26.7136381814
  0
INSERT
  5
218
100
AcDbEntity
  8
0
100
AcDbBlockReference
 62
2
  6
CONTINUOUS
  2
_FILLED
 10
150.9542381361
 20
56.2764994913
 41
2.2
 42
2.2
 43
2.2
 50
206.7136381814
  0
ENDBLK
  5
219
100
AcDbEntity
  8
0
  6
BYBLOCK
 62
0
100
AcDbBlockEnd
  0
BLOCK
  5
21A
100
AcDbEntity
  8
0
100
AcDbBlockBegin
 62
2
  6
CONTINUOUS
  2
*D1
 70
65
 10
0.0
 20
0.0
  3
*D1
  1

  0
MTEXT
  5
21B
100
AcDbEntity
  8
0
100
AcDbMText
 62
2
  6
CONTINUOUS
  7
STANDARD
 71
2
 72
1
 10
123.2601455517
 20
74.6412670967
 30
0.0
 11
1.0
 21
0.0
 31
0.0
  1
205.2
 40
2.4
 41
10.2
  0
LINE
  5
21C
100
AcDbEntity
  8
0
100
AcDbLine
 62
2
  6
CONTINUOUS
 10
44.8451145849
 20
85.7395073991
 11
44.8451145849
 21
72.7412670967
  0
LINE
  5
21D
100
AcDbEntity
  8
0
100
AcDbLine
 62
2
  6
CONTINUOUS
 10
250.0616120366
 20
126.4247371731
 11
250.0616120366
 21
72.7412670967
  0
LINE
  5
21E
100
AcDbEntity
  8
0
100
AcDbLine
 62
2
  6
CONTINUOUS
 10
44.8451145849
 20
73.4412670967
 11
117.4401455517
 21
73.4412670967
  0
LINE
  5
21F
100
AcDbEntity
  8
0
100
AcDbLine
 62
2
  6
CONTINUOUS
 10
250.0616120366
 20
73.4412670967
 11
129.0801455517
 21
73.4412670967
  0
INSERT
  5
220
100
AcDbEntity
  8
0
100
AcDbBlockReference
 62
2
  6
CONTINUOUS
  2
_FILLED
 10
44.8451145849
 20
73.4412670967
 41
2.2
 42
2.2
 43
2.2
 50
180.0
  0
INSERT
  5
221
100
AcDbEntity
  8
0
100
AcDbBlockReference
 62
2
  6
CONTINUOUS
  2
_FILLED
 10
250.0616120366
 20
73.4412670967
 41
2.2
 42
2.2
 43
2.2
  0
ENDBLK
  5
222
100
AcDbEntity
  8
0
  6
BYBLOCK
 62
0
100
AcDbBlockEnd
  0
BLOCK
  5
223
100
AcDbEntity
  8
0
100
AcDbBlockBegin
 62
2
  6
CONTINUOUS
  2
*D2
 70
65
 10
0.0
 20
0.0
  3
*D2
  1

  0
MTEXT
  5
224
100
AcDbEntity
  8
0
100
AcDbMText
 62
2
  6
CONTINUOUS
  7
STANDARD
 71
2
 72
1
 10
195.9841833908
 20
107.947503173
 30
0.0
 11
1.0
 21
0.0
 31
0.0
  1
200
 40
2.4
 41
6.12
  0
LINE
  5
225
100
AcDbEntity
  8
0
100
AcDbLine
 62
2
  6
CONTINUOUS
 10
195.9841833908
 20
6.747503173
 11
195.9841833908
 21
104.827503173
  0
LINE
  5
226
100
AcDbEntity
  8
0
100
AcDbLine
 62
2
  6
CONTINUOUS
 10
195.9841833908
 20
206.747503173
 11
195.9841833908
 21
108.667503173
  0
INSERT
  5
227
100
AcDbEntity
  8
0
100
AcDbBlockReference
 62
2
  6
CONTINUOUS
  2
_FILLED
 10
195.9841833908
 20
6.747503173
 41
2.2
 42
2.2
 43
2.2
 50
270.0
  0
INSERT
  5
228
100
AcDbEntity
  8
0
100
AcDbBlockReference
 62
2
  6
CONTINUOUS
  2
_FILLED
 10
195.9841833908
 20
206.747503173
 41
2.2
 42
2.2
 43
2.2
 50
90.0
  0
ENDBLK
  5
229
100
AcDbEntity
  8
0
  6
BYBLOCK
 62
0
100
AcDbBlockEnd
  0
ENDSEC
  0
SECTION
  2
ENTITIES
  0
DIMENSION
  5
22A
100
AcDbEntity
  8
0
100
AcDbDimension
 62
2
  6
CONTINUOUS
  2
*D0
 10
184.9876121988
 20
73.4036548276
 11
176.1348976295
 21
68.948562679
 70
163
  1
<>
  3
DIMSTYLE_1
100
AcDbDiametricDimension
 15
150.9542381361
 25
56.2764994913
  0
DIMENSION
  5
22B
100
AcDbEntity
  8
0
100
AcDbDimension
 62
2
  6
CONTINUOUS
  2
*D1
 10
250.0616120366
 20
73.4412670967
 11
123.2601455517
 21
73.4412670967
 70
160
  3
DIMSTYLE_2
100
AcDbAlignedDimension
 13
44.8451145849
 23
86.4395073991
 14
250.0616120366
 24
127.1247371731
100
AcDbRotatedDimension
  0
DIMENSION
  5
22C
100
AcDbEntity
  8
0
100
AcDbDimension
 62
2
  6
CONTINUOUS
  2
*D2
 10
195.9841833908
 20
206.747503173
 11
195.9841833908
 21
106.747503173
 70
160
  3
DIMSTYLE_3
100
AcDbAlignedDimension
 13
223.9159695277
 23
6.747503173
 14
213.9159695277
 24
206.747503173
 50
90.0
100
AcDbRotatedDimension
  0
LINE
  5
22D
100
AcDbEntity
  8
AXIS
100
AcDbLine
 62
7
  6
CONTINUOUS
 10
45.0871101589
 20
84.0417309461
 11
58.2386302931
 21
19.5504679025
  0
LINE
  5
22E
100
AcDbEntity
  8
AXIS
100
AcDbLine
 62
7
  6
CONTINUOUS
 10
68.290514051
 20
194.189180256
 11
45.1260229774
 21
89.0207652113
  0
LINE
  5
22F
100
AcDbEntity
  8
AXIS
100
AcDbLine
 62
7
  6
CONTINUOUS
 10
73.9159695277
 20
6.747503173
 11
223.9159695277
 21
6.747503173
  0
LINE
  5
230
100
AcDbEntity
  8
AXIS
100
AcDbLine
 62
2
  6
CENTER
 10
56.9159695277
 20
86.047503173
 11
56.9159695277
 21
77.672503173
  0
LINE
  5
231
100
AcDbEntity
  8
AXIS
100
AcDbLine
 62
2
  6
CENTER
 10
56.9159695277
 20
86.047503173
 11
56.9159695277
 21
94.422503173
  0
LINE
  5
232
100
AcDbEntity
  8
AXIS
100
AcDbLine
 62
2
  6
CENTER
 10
104.7159695277
 20
179.647503173
 11
98.9195911503
 21
173.6024537352
  0
LINE
  5
233
100
AcDbEntity
  8
AXIS
100
AcDbLine
 62
2
  6
CENTER
 10
104.7159695277
 20
179.647503173
 11
110.5123479052
 21
185.6925526108
  0
LINE
  5
234
100
AcDbEntity
  8
AXIS
100
AcDbLine
 62
2
  6
CENTER
 10
224.4159695277
 20
22.747503173
 11
213.9159695277
 21
22.747503173
  0
LINE
  5
235
100
AcDbEntity
  8
AXIS
100
AcDbLine
 62
2
  6
CENTER
 10
73.9159695277
 20
22.747503173
 11
63.4159695277
 21
22.747503173
  0
LINE
  5
236
100
AcDbEntity
  8
AXIS
100
AcDbLine
 62
2
  6
CENTER
 10
73.9159695277
 20
22.747503173
 11
84.4159695277
 21
22.747503173
  0
LINE
  5
237
100
AcDbEntity
  8
AXIS
100
AcDbLine
 62
2
  6
CENTER
 10
224.4159695277
 20
22.747503173
 11
234.9159695277
 21
22.747503173
  0
LINE
  5
238
100
AcDbEntity
  8
AXIS
100
AcDbLine
 62
2
  6
CENTER
 10
135.6159695277
 20
24.447503173
 11
127.2409695277
 21
24.447503173
  0
LINE
  5
239
100
AcDbEntity
  8
AXIS
100
AcDbLine
 62
2
  6
CENTER
 10
135.6159695277
 20
24.447503173
 11
143.9909695277
 21
24.447503173
  0
LINE
  5
23A
100
AcDbEntity
  8
AXIS
100
AcDbLine
 62
2
  6
CENTER
 10
73.9159695277
 20
22.747503173
 11
73.9159695277
 21
12.247503173
  0
LINE
  5
23B
100
AcDbEntity
  8
AXIS
100
AcDbLine
 62
2
  6
CENTER
 10
73.9159695277
 20
22.747503173
 11
73.9159695277
 21
33.247503173
  0
LINE
  5
23C
100
AcDbEntity
  8
AXIS
100
AcDbLine
 62
2
  6
CENTER
 10
83.9159695277
 20
190.747503173
 11
83.9159695277
 21
180.247503173
  0
LINE
  5
23D
100
AcDbEntity
  8
AXIS
100
AcDbLine
 62
2
  6
CENTER
 10
83.9159695277
 20
190.747503173
 11
83.9159695277
 21
201.247503173
  0
LINE
  5
23E
100
AcDbEntity
  8
AXIS
100
AcDbLine
 62
2
  6
CENTER
 10
225.7159695277
 20
42.347503173
 11
217.3409695277
 21
42.347503173
  0
LINE
  5
23F
100
AcDbEntity
  8
AXIS
100
AcDbLine
 62
2
  6
CENTER
 10
225.7159695277
 20
42.347503173
 11
234.0909695277
 21
42.347503173
  0
LINE
  5
240
100
AcDbEntity
  8
AXIS
100
AcDbLine
 62
2
  6
CENTER
 10
167.9709251675
 20
64.8400771595
 11
144.9209251675
 21
64.8400771595
  0
LINE
  5
241
100
AcDbEntity
  8
AXIS
100
AcDbLine
 62
2
  6
CENTER
 10
167.9709251675
 20
64.8400771595
 11
191.0209251675
 21
64.8400771595
  0
LINE
  5
242
100
AcDbEntity
  8
AXIS
100
AcDbLine
 62
2
  6
CENTER
 10
56.9159695277
 20
86.047503173
 11
48.5409695277
 21
86.047503173
  0
LINE
  5
243
100
AcDbEntity
  8
AXIS
100
AcDbLine
 62
2
  6
CENTER
 10
56.9159695277
 20
86.047503173
 11
65.2909695277
 21
86.047503173
  0
LINE
  5
244
100
AcDbEntity
  8
AXIS
100
AcDbLine
 62
2
  6
CENTER
 10
135.6159695277
 20
24.447503173
 11
135.6159695277
 21
16.072503173
  0
LINE
  5
245
100
AcDbEntity
  8
AXIS
100
AcDbLine
 62
2
  6
CENTER
 10
135.6159695277
 20
24.447503173
 11
135.6159695277
 21
32.822503173
  0
LINE
  5
246
100
AcDbEntity
  8
0
100
AcDbLine
 62
7
  6
CONTINUOUS
 10
132.8615694627
 20
101.871716912
 11
130.5781590487
 21
95.5980983601
  0
LINE
  5
247
100
AcDbEntity
  8
0
100
AcDbLine
 62
9
  6
CONTINUOUS
 10
131.0480053591
 20
95.4270882884
 11
133.488101378
 21
102.1311970017
  0
LINE
  5
248
100
AcDbEntity
  8
0
100
AcDbLine
 62
9
  6
CONTINUOUS
 10
131.0480053591
 20
95.4270882884
 11
130.5781590487
 21
95.5980983601
  0
LINE
  5
249
100
AcDbEntity
  8
0
100
AcDbLine
 62
9
  6
CONTINUOUS
 10
136.6861610838
 20
93.3749674285
 11
137.1560073942
 21
93.2039573568
  0
LINE
  5
24A
100
AcDbEntity
  8
0
100
AcDbLine
 62
9
  6
CONTINUOUS
 10
139.1262571027
 20
100.0790761418
 11
136.6861610838
 21
93.3749674285
  0
LINE
  5
24B
100
AcDbEntity
  8
0
100
AcDbLine
 62
7
  6
CONTINUOUS
 10
137.1560073942
 20
93.2039573568
 11
139.4394178082
 21
99.4775759087
  0
LINE
  5
24C
100
AcDbEntity
  8
AXIS
100
AcDbLine
 62
2
  6
CENTER
 10
234.0159695277
 20
126.847503173
 11
225.6409695277
 21
126.847503173
  0
LINE
  5
24D
100
AcDbEntity
  8
AXIS
100
AcDbLine
 62
2
  6
CENTER
 10
234.0159695277
 20
126.847503173
 11
242.3909695277
 21
126.847503173
  0
LINE
  5
24E
100
AcDbEntity
  8
AXIS
100
AcDbLine
 62
2
  6
CENTER
 10
167.9709251675
 20
64.8400771595
 11
167.9709251675
 21
41.7900771595
  0
LINE
  5
24F
100
AcDbEntity
  8
AXIS
100
AcDbLine
 62
2
  6
CENTER
 10
167.9709251675
 20
64.8400771595
 11
167.9709251675
 21
87.8900771595
  0
LINE
  5
250
100
AcDbEntity
  8
AXIS
100
AcDbLine
 62
2
  6
CENTER
 10
104.7159695277
 20
179.647503173
 11
110.7610189656
 21
173.8511247956
  0
LINE
  5
251
100
AcDbEntity
  8
AXIS
100
AcDbLine
 62
2
  6
CENTER
 10
104.7159695277
 20
179.647503173
 11
98.6709200899
 21
185.4438815504
  0
LINE
  5
252
100
AcDbEntity
  8
AXIS
100
AcDbLine
 62
2
  6
CENTER
 10
185.7159695277
 20
190.147503173
 11
185.7159695277
 21
181.772503173
  0
LINE
  5
253
100
AcDbEntity
  8
AXIS
100
AcDbLine
 62
2
  6
CENTER
 10
185.7159695277
 20
190.147503173
 11
185.7159695277
 21
198.522503173
  0
LINE
  5
254
100
AcDbEntity
  8
AXIS
100
AcDbLine
 62
2
  6
CENTER
 10
213.9159695277
 20
190.747503173
 11
213.9159695277
 21
180.247503173
  0
LINE
  5
255
100
AcDbEntity
  8
AXIS
100
AcDbLine
 62
2
  6
CENTER
 10
213.9159695277
 20
190.747503173
 11
213.9159695277
 21
201.247503173
  0
LINE
  5
256
100
AcDbEntity
  8
AXIS
100
AcDbLine
 62
2
  6
CENTER
 10
224.4159695277
 20
22.747503173
 11
224.4159695277
 21
12.247503173
  0
LINE
  5
257
100
AcDbEntity
  8
AXIS
100
AcDbLine
 62
2
  6
CENTER
 10
224.4159695277
 20
22.747503173
 11
224.4159695277
 21
33.247503173
  0
LINE
  5
258
100
AcDbEntity
  8
AXIS
100
AcDbLine
 62
2
  6
CENTER
 10
225.7159695277
 20
42.347503173
 11
225.7159695277
 21
33.972503173
  0
LINE
  5
259
100
AcDbEntity
  8
AXIS
100
AcDbLine
 62
2
  6
CENTER
 10
225.7159695277
 20
42.347503173
 11
225.7159695277
 21
50.722503173
  0
LINE
  5
25A
100
AcDbEntity
  8
AXIS
100
AcDbLine
 62
2
  6
CENTER
 10
234.0159695277
 20
126.847503173
 11
234.0159695277
 21
118.472503173
  0
LINE
  5
25B
100
AcDbEntity
  8
AXIS
100
AcDbLine
 62
2
  6
CENTER
 10
234.0159695277
 20
126.847503173
 11
234.0159695277
 21
135.222503173
  0
LINE
  5
25C
100
AcDbEntity
  8
AXIS
100
AcDbLine
 62
2
  6
CENTER
 10
185.7159695277
 20
190.147503173
 11
177.3409695277
 21
190.147503173
  0
LINE
  5
25D
100
AcDbEntity
  8
AXIS
100
AcDbLine
 62
2
  6
CENTER
 10
185.7159695277
 20
190.147503173
 11
194.0909695277
 21
190.147503173
  0
LINE
  5
25E
100
AcDbEntity
  8
AXIS
100
AcDbLine
 62
2
  6
CENTER
 10
213.9159695277
 20
190.747503173
 11
203.4159695277
 21
190.747503173
  0
LINE
  5
25F
100
AcDbEntity
  8
AXIS
100
AcDbLine
 62
2
  6
CENTER
 10
83.9159695277
 20
190.747503173
 11
73.4159695277
 21
190.747503173
  0
LINE
  5
260
100
AcDbEntity
  8
AXIS
100
AcDbLine
 62
2
  6
CENTER
 10
83.9159695277
 20
190.747503173
 11
94.4159695277
 21
190.747503173
  0
LINE
  5
261
100
AcDbEntity
  8
AXIS
100
AcDbLine
 62
2
  6
CENTER
 10
213.9159695277
 20
190.747503173
 11
224.4159695277
 21
190.747503173
  0
LINE
  5
262
100
AcDbEntity
  8
AXIS
100
AcDbLine
 62
7
  6
CONTINUOUS
 10
239.8409156194
 20
21.1995716574
 11
249.9865581283
 21
125.5768056575
  0
LINE
  5
263
100
AcDbEntity
  8
AXIS
100
AcDbLine
 62
7
  6
CONTINUOUS
 10
213.9159695277
 20
206.747503173
 11
83.9159695277
 21
206.747503173
  0
LINE
  5
264
100
AcDbEntity
  8
AXIS
100
AcDbLine
 62
7
  6
CONTINUOUS
 10
249.3151957449
 20
131.9546630579
 11
229.1695532361
 21
195.5774290578
  0
ARC
  5
265
100
AcDbEntity
  8
AXIS
100
AcDbCircle
 62
7
  6
CONTINUOUS
 10
73.9159695277
 20
22.747503173
 40
16.0
100
AcDbArc
 50
191.5261236635
 51
270.0
  0
ARC
  5
266
100
AcDbEntity
  8
AXIS
100
AcDbCircle
 62
7
  6
CONTINUOUS
 10
56.8451145849
 20
86.4395073991
 40
12.0
100
AcDbArc
 50
167.5783232013
 51
191.5261236635
  0
CIRCLE
  5
267
100
AcDbEntity
  8
AXIS
100
AcDbCircle
 62
7
  6
CONTINUOUS
 10
73.9159695277
 20
22.747503173
 40
6.5
  0
ARC
  5
268
100
AcDbEntity
  8
0
100
AcDbCircle
 62
2
  6
CONTINUOUS
 10
135.6159695277
 20
24.447503173
 40
5.0
100
AcDbArc
 50
255.0
 51
195.0
  0
ARC
  5
269
100
AcDbEntity
  8
0
100
AcDbCircle
 62
2
  6
CONTINUOUS
 10
56.9159695277
 20
86.047503173
 40
5.0
100
AcDbArc
 50
255.0
 51
195.0
  0
CIRCLE
  5
26A
100
AcDbEntity
  8
AXIS
100
AcDbCircle
 62
7
  6
CONTINUOUS
 10
56.9159695277
 20
86.047503173
 40
4.375
  0
CIRCLE
  5
26B
100
AcDbEntity
  8
AXIS
100
AcDbCircle
 62
7
  6
CONTINUOUS
 10
135.6159695277
 20
24.447503173
 40
4.375
  0
ARC
  5
26C
100
AcDbEntity
  8
0
100
AcDbCircle
 62
7
  6
CONTINUOUS
 10
133.8670832214
 20
94.4010278584
 40
3.5
100
AcDbArc
 50
160.0
 51
340.0
  0
ARC
  5
26D
100
AcDbEntity
  8
0
100
AcDbCircle
 62
9
  6
CONTINUOUS
 10
133.8670832214
 20
94.4010278584
 40
3.0
100
AcDbArc
 50
160.0
 51
340.0
  0
ARC
  5
26E
100
AcDbEntity
  8
0
100
AcDbCircle
 62
7
  6
CONTINUOUS
 10
90.8796012671
 20
204.1261097261
 40
110.5370820284
100
AcDbArc
 50
292.3212860322
 51
292.6727929496
  0
ARC
  5
26F
100
AcDbEntity
  8
AXIS
100
AcDbCircle
 62
7
  6
CONTINUOUS
 10
83.9159695277
 20
190.747503173
 40
16.0
100
AcDbArc
 50
90.0
 51
167.5783232013
  0
CIRCLE
  5
270
100
AcDbEntity
  8
AXIS
100
AcDbCircle
 62
7
  6
CONTINUOUS
 10
83.9159695277
 20
190.747503173
 40
6.5
  0
ARC
  5
271
100
AcDbEntity
  8
0
100
AcDbCircle
 62
2
  6
CONTINUOUS
 10
104.7159695277
 20
179.647503173
 40
5.0
100
AcDbArc
 50
255.0
 51
195.0
  0
CIRCLE
  5
272
100
AcDbEntity
  8
AXIS
100
AcDbCircle
 62
7
  6
CONTINUOUS
 10
104.7159695277
 20
179.647503173
 40
4.375
  0
CIRCLE
  5
273
100
AcDbEntity
  8
AXIS
100
AcDbCircle
 62
7
  6
CONTINUOUS
 10
167.9709251675
 20
64.8400771595
 40
19.05
  0
ARC
  5
274
100
AcDbEntity
  8
AXIS
100
AcDbCircle
 62
7
  6
CONTINUOUS
 10
223.9159695277
 20
22.747503173
 40
16.0
100
AcDbArc
 50
270.0
 51
354.4481949254
  0
CIRCLE
  5
275
100
AcDbEntity
  8
AXIS
100
AcDbCircle
 62
7
  6
CONTINUOUS
 10
224.4159695277
 20
22.747503173
 40
6.5
  0
ARC
  5
276
100
AcDbEntity
  8
0
100
AcDbCircle
 62
2
  6
CONTINUOUS
 10
225.7159695277
 20
42.347503173
 40
5.0
100
AcDbArc
 50
255.0
 51
195.0
  0
CIRCLE
  5
277
100
AcDbEntity
  8
AXIS
100
AcDbCircle
 62
7
  6
CONTINUOUS
 10
225.7159695277
 20
42.347503173
 40
4.375
  0
ARC
  5
278
100
AcDbEntity
  8
0
100
AcDbCircle
 62
7
  6
CONTINUOUS
 10
237.3273279985
 20
150.8234963252
 40
110.5370820351
100
AcDbArc
 50
207.3272070504
 51
207.6787139677
  0
ARC
  5
279
100
AcDbEntity
  8
0
100
AcDbCircle
 62
7
  6
CONTINUOUS
 10
148.9159695277
 20
135.747503173
 40
40.875
100
AcDbArc
 50
254.9120756781
 51
245.0879243218
  0
ARC
  5
27A
100
AcDbEntity
  8
0
100
AcDbCircle
 62
9
  6
CONTINUOUS
 10
148.9159695277
 20
135.747503173
 40
40.375
100
AcDbArc
 50
254.9730586111
 51
245.0269413889
  0
ARC
  5
27B
100
AcDbEntity
  8
0
100
AcDbCircle
 62
7
  6
CONTINUOUS
 10
148.9159695277
 20
135.747503173
 40
37.4875
100
AcDbArc
 50
255.357191563
 51
244.6428084369
  0
ARC
  5
27C
100
AcDbEntity
  8
0
100
AcDbCircle
 62
9
  6
CONTINUOUS
 10
148.9159695277
 20
135.747503173
 40
36.9875
100
AcDbArc
 50
254.652284184
 51
245.347715816
  0
CIRCLE
  5
27D
100
AcDbEntity
  8
AXIS
100
AcDbCircle
 62
7
  6
CONTINUOUS
 10
148.9159695277
 20
135.747503173
 40
33.35
  0
CIRCLE
  5
27E
100
AcDbEntity
  8
0
100
AcDbCircle
 62
9
  6
CONTINUOUS
 10
148.9159695277
 20
135.747503173
 40
32.85
  0
CIRCLE
  5
27F
100
AcDbEntity
  8
AXIS
100
AcDbCircle
 62
7
  6
CONTINUOUS
 10
148.9159695277
 20
135.747503173
 40
22.5
  0
ARC
  5
280
100
AcDbEntity
  8
AXIS
100
AcDbCircle
 62
7
  6
CONTINUOUS
 10
234.0616120366
 20
127.1247371731
 40
16.0
100
AcDbArc
 50
354.4481949254
 51
17.5699764376
  0
ARC
  5
281
100
AcDbEntity
  8
AXIS
100
AcDbCircle
 62
7
  6
CONTINUOUS
 10
213.9159695277
 20
190.747503173
 40
16.0
100
AcDbArc
 50
17.5699764376
 51
90.0
  0
CIRCLE
  5
282
100
AcDbEntity
  8
AXIS
100
AcDbCircle
 62
7
  6
CONTINUOUS
 10
213.9159695277
 20
190.747503173
 40
6.5
  0
ARC
  5
283
100
AcDbEntity
  8
0
100
AcDbCircle
 62
2
  6
CONTINUOUS
 10
234.0159695277
 20
126.847503173
 40
5.0
100
AcDbArc
 50
255.0
 51
195.0
  0
ARC
  5
284
100
AcDbEntity
  8
0
100
AcDbCircle
 62
2
  6
CONTINUOUS
 10
185.7159695277
 20
190.147503173
 40
5.0
100
AcDbArc
 50
255.0
 51
195.0
  0
CIRCLE
  5
285
100
AcDbEntity
  8
AXIS
100
AcDbCircle
 62
7
  6
CONTINUOUS
 10
185.7159695277
 20
190.147503173
 40
4.375
  0
CIRCLE
  5
286
100
AcDbEntity
  8
AXIS
100
AcDbCircle
 62
7
  6
CONTINUOUS
 10
234.0159695277
 20
126.847503173
 40
4.375
  0
ENDSEC
  0
SECTION
  2
OBJECTS
  0
DICTIONARY
  5
287
100
AcDbDictionary
  3
ACAD_GROUP
350
288
  3
ACAD_MLINESTYLE
350
289
  0
DICTIONARY
  5
288
102
{ACAD_REACTORS
330
287
102
}
100
AcDbDictionary
  0
DICTIONARY
  5
289
102
{ACAD_REACTORS
330
287
102
}
100
AcDbDictionary
  3
STANDARD
350
28A
  0
MLINESTYLE
  5
28A
102
{ACAD_REACTORS
330
289
102
}
100
AcDbMlineStyle
  2
STANDARD
 70
0
  3

 62
256
 51
90.0
 52
90.0
 71
2
 49
0.5
 62
256
  6
BYLAYER
 49
-0.5
 62
256
  6
BYLAYER
  0
ENDSEC
  0
EOF
