999
DXF file: aisin_w50_2.dxf
999
Pro/ENGINEER 2013240 by Parametric Technology Corporation
  0
SECTION
  2
HEADER
  9
$ACADVER
  1
AC1012
  9
$DWGCODEPAGE
  3
ANSI_1252
  9
$EXTMAX
 10
297.0
 20
210.0
 30
0.0
  9
$EXTMIN
 10
0.0
 20
0.0
 30
0.0
  9
$LIMMIN
 10
0.0
 20
0.0
  9
$LIMMAX
 10
297.0
 20
210.0
  9
$VIEWCTR
 10
148.5
 20
105.0
  9
$VIEWSIZE
 40
210.0
  9
$CLAYER
  8
0
  9
$LTSCALE
 40
16.335
  9
$CELTYPE
  6
BYLAYER
  9
$DIMSCALE
 40
1.0
  9
$DIMASZ
 40
2.2
  9
$DIMEXO
 40
0.7
  9
$DIMDLI
 40
11.286
  9
$DIMEXE
 40
0.7
  9
$DIMCEN
 40
2.673
  9
$DIMLFAC
 40
1.0
  9
$DIMBLK
  1
_FILLED
  9
$DIMTXT
 40
2.4
  9
$DIMTOL
 70
1
  9
$DIMLIM
 70
0
  9
$DIMTFAC
 40
1.0
  9
$DIMTP
 40
0.001
  9
$DIMTM
 40
0.001
  9
$DIMGAP
 40
0.625
  9
$PDMODE
 70
3
  9
$PDSIZE
 40
1.0
  9
$HANDSEED
  5
283
  9
$TILEMODE
 70
1
  0
ENDSEC
  0
SECTION
  2
CLASSES
  0
ENDSEC
  0
SECTION
  2
TABLES
  0
TABLE
  2
VPORT
  5
8
100
AcDbSymbolTable
 70
2
  0
VPORT
  5
1F4
100
AcDbSymbolTableRecord
100
AcDbViewportTableRecord
  2
*ACTIVE
 70
0
 10
0.0
 20
0.0
 11
1.0
 21
1.0
 12
148.5
 22
105.0
 13
0.0
 23
0.0
 14
1.0
 24
1.0
 15
0.0
 25
0.0
 16
0.0
 26
0.0
 36
1.0
 17
0.0
 27
0.0
 37
0.0
 40
210.0
 41
1.4142857143
 42
50.0
 43
0.0
 44
0.0
 50
0.0
 51
0.0
 71
0
 72
100
 73
1
 74
1
 75
0
 76
0
 77
0
 78
0
  0
ENDTAB
  0
TABLE
  2
LTYPE
  5
5
100
AcDbSymbolTable
 70
6
  0
LTYPE
  5
14
100
AcDbSymbolTableRecord
100
AcDbLinetypeTableRecord
  2
BYBLOCK
 70
0
  3

 72
65
 73
0
 40
0.0
  0
LTYPE
  5
15
100
AcDbSymbolTableRecord
100
AcDbLinetypeTableRecord
  2
BYLAYER
 70
0
  3

 72
65
 73
0
 40
0.0
  0
LTYPE
  5
16
100
AcDbSymbolTableRecord
100
AcDbLinetypeTableRecord
  2
CONTINUOUS
 70
64
  3
Solid line
 72
65
 73
0
 40
0.0
  0
LTYPE
  5
1F5
100
AcDbSymbolTableRecord
100
AcDbLinetypeTableRecord
  2
CENTER
 70
64
  3
____ _ ____ _ ____ _ ____ _ ____ _ ____ _ ____
 72
65
 73
4
 40
0.6
 49
0.375
 74
0
 49
-0.075
 74
0
 49
0.075
 74
0
 49
-0.075
 74
0
  0
LTYPE
  5
1F6
100
AcDbSymbolTableRecord
100
AcDbLinetypeTableRecord
  2
HIDDEN
 70
64
  3
- - - - - - - - - - - - - - - - - - - -
 72
65
 73
2
 40
0.2
 49
0.1
 74
0
 49
-0.1
 74
0
  0
LTYPE
  5
1F7
100
AcDbSymbolTableRecord
100
AcDbLinetypeTableRecord
  2
PHANTOM
 70
64
  3
_____ _ _ _____ _ _ _____ _ _ _____
 72
65
 73
6
 40
0.8
 49
0.45
 74
0
 49
-0.05
 74
0
 49
0.1
 74
0
 49
-0.05
 74
0
 49
0.1
 74
0
 49
-0.05
 74
0
  0
LTYPE
  5
1F8
100
AcDbSymbolTableRecord
100
AcDbLinetypeTableRecord
  2
DOT
 70
64
  3
. . . . . . . . . . . . . . . . . . . .
 72
65
 73
2
 40
0.2
 49
0.1
 74
0
 49
-0.1
 74
0
  0
LTYPE
  5
1F9
100
AcDbSymbolTableRecord
100
AcDbLinetypeTableRecord
  2
DASHED
 70
64
  3
- - - - - - - - - - - - - - - - - - - -
 72
65
 73
2
 40
0.2
 49
0.1
 74
0
 49
-0.1
 74
0
  0
ENDTAB
  0
TABLE
  2
LAYER
  5
2
100
AcDbSymbolTable
 70
36
  0
LAYER
  5
10
100
AcDbSymbolTableRecord
100
AcDbLayerTableRecord
  2
0
 70
0
 62
7
  6
CONTINUOUS
  0
LAYER
  5
1FA
100
AcDbSymbolTableRecord
100
AcDbLayerTableRecord
  2
DEFAULT_1
 70
0
 62
7
  6
CENTER
  0
LAYER
  5
1FB
100
AcDbSymbolTableRecord
100
AcDbLayerTableRecord
  2
DEFAULT_2
 70
0
 62
8
  6
HIDDEN
  0
LAYER
  5
1FC
100
AcDbSymbolTableRecord
100
AcDbLayerTableRecord
  2
DEFAULT_3
 70
0
 62
7
  6
PHANTOM
  0
LAYER
  5
1FD
100
AcDbSymbolTableRecord
100
AcDbLayerTableRecord
  2
AXIS
 70
0
 62
7
  6
CONTINUOUS
  0
LAYER
  5
1FE
100
AcDbSymbolTableRecord
100
AcDbLayerTableRecord
  2
CSYS
 70
0
 62
7
  6
CONTINUOUS
  0
LAYER
  5
1FF
100
AcDbSymbolTableRecord
100
AcDbLayerTableRecord
  2
CURVES
 70
0
 62
7
  6
CONTINUOUS
  0
LAYER
  5
200
100
AcDbSymbolTableRecord
100
AcDbLayerTableRecord
  2
DATUM
 70
0
 62
7
  6
CONTINUOUS
  0
LAYER
  5
201
100
AcDbSymbolTableRecord
100
AcDbLayerTableRecord
  2
R2V
 70
0
 62
7
  6
CONTINUOUS
  0
LAYER
  5
202
100
AcDbSymbolTableRecord
100
AcDbLayerTableRecord
  2
SURF_FIN
 70
0
 62
7
  6
CONTINUOUS
  0
LAYER
  5
203
100
AcDbSymbolTableRecord
100
AcDbLayerTableRecord
  2
WHITE
 70
0
 62
7
  6
CONTINUOUS
  0
LAYER
  5
204
100
AcDbSymbolTableRecord
100
AcDbLayerTableRecord
  2
XSEC_DATUMS
 70
0
 62
7
  6
CONTINUOUS
  0
ENDTAB
  0
TABLE
  2
STYLE
  5
3
100
AcDbSymbolTable
 70
1
  0
STYLE
  5
11
100
AcDbSymbolTableRecord
100
AcDbTextStyleTableRecord
  2
STANDARD
 70
0
 40
0.0
 41
0.85
 50
0.0
 71
0
 42
0.2
  3
txt
  4

  0
STYLE
  5
205
100
AcDbSymbolTableRecord
100
AcDbTextStyleTableRecord
  2
TEXTSTYLE_1
 70
0
 40
0.0
 41
0.8
 50
0.0
 71
0
 42
0.2
  3
gdt
  4

  0
ENDTAB
  0
TABLE
  2
VIEW
  5
6
100
AcDbSymbolTable
 70
0
  0
ENDTAB
  0
TABLE
  2
UCS
  5
7
100
AcDbSymbolTable
 70
0
  0
ENDTAB
  0
TABLE
  2
APPID
  5
9
100
AcDbSymbolTable
 70
1
  0
APPID
  5
206
100
AcDbSymbolTableRecord
100
AcDbRegAppTableRecord
  2
ACAD
 70
0
  0
ENDTAB
  0
TABLE
  2
BLOCK_RECORD
  5
1
100
AcDbSymbolTable
 70
0
  0
BLOCK_RECORD
  5
1F
100
AcDbSymbolTableRecord
100
AcDbBlockTableRecord
  2
*MODEL_SPACE
  0
BLOCK_RECORD
  5
1B
100
AcDbSymbolTableRecord
100
AcDbBlockTableRecord
  2
*PAPER_SPACE
  0
BLOCK_RECORD
  5
207
100
AcDbSymbolTableRecord
100
AcDbBlockTableRecord
  2
_FILLED
  0
BLOCK_RECORD
  5
208
100
AcDbSymbolTableRecord
100
AcDbBlockTableRecord
  2
*D0
  0
BLOCK_RECORD
  5
209
100
AcDbSymbolTableRecord
100
AcDbBlockTableRecord
  2
*D1
  0
ENDTAB
  0
TABLE
  2
DIMSTYLE
  5
A
100
AcDbSymbolTable
 70
1
  0
DIMSTYLE
105
20A
100
AcDbSymbolTableRecord
100
AcDbDimStyleTableRecord
  2
STANDARD
 70
0
  3

  4

  5
_FILLED
  6
_FILLED
  7
_FILLED
 40
1.0
 41
2.2
 42
0.7
 43
0.38
 44
0.7
 45
0.0
 46
0.0
 47
0.001
 48
0.001
140
2.4
141
0.09
142
0.0
143
25.4
144
1.0
145
0.0
146
1.0
147
0.625
 71
1.0
 72
0.0
 73
1
 74
1
 75
0
 76
0
 77
0
 78
8
170
0
171
2
172
0
173
0
174
0
175
0
176
0
177
0
178
0
270
2
271
3
272
3
273
2
274
2
275
0
280
0
281
0
282
0
283
1
284
8
285
0
286
0
287
3
288
0
340
11
  0
DIMSTYLE
105
20B
100
AcDbSymbolTableRecord
100
AcDbDimStyleTableRecord
  2
DIMSTYLE_1
 70
0
  3

  4

  5
_FILLED
  6
_FILLED
  7
_FILLED
 40
1.0
 41
2.2
 42
0.7
 43
0.38
 44
0.7
 45
0.0
 46
0.0
 47
0.001
 48
0.001
140
2.4
141
0.09
142
0.0
143
25.4
144
1.0
145
0.0
146
1.0
147
0.72
 71
0.0
 72
0.0
 73
1
 74
1
 75
0
 76
0
 77
0
 78
8
170
0
171
2
172
0
173
0
174
0
175
0
176
0
177
0
178
0
270
2
271
1
272
1
273
2
274
2
275
0
280
0
281
0
282
0
283
1
284
8
285
0
286
0
287
3
288
0
340
11
  0
DIMSTYLE
105
20C
100
AcDbSymbolTableRecord
100
AcDbDimStyleTableRecord
  2
DIMSTYLE_2
 70
0
  3

  4

  5
_FILLED
  6
_FILLED
  7
_FILLED
 40
1.0
 41
2.2
 42
0.7
 43
0.38
 44
0.7
 45
0.0
 46
0.0
 47
0.001
 48
0.001
140
2.4
141
0.09
142
0.0
143
25.4
144
1.0
145
0.0
146
1.0
147
0.72
 71
0.0
 72
0.0
 73
1
 74
1
 75
0
 76
0
 77
0
 78
8
170
0
171
2
172
0
173
0
174
0
175
0
176
0
177
0
178
0
270
2
271
3
272
3
273
2
274
2
275
0
280
0
281
0
282
0
283
1
284
8
285
0
286
0
287
3
288
0
340
11
  0
ENDTAB
  0
ENDSEC
  0
SECTION
  2
BLOCKS
  0
BLOCK
  5
20
100
AcDbEntity
  8
0
100
AcDbBlockBegin
  2
*MODEL_SPACE
 70
0
 10
0.0
 20
0.0
 30
0.0
  3
*MODEL_SPACE
  1

  0
ENDBLK
  5
21
100
AcDbEntity
  8
0
100
AcDbBlockEnd
  0
BLOCK
  5
1C
100
AcDbEntity
  8
0
100
AcDbBlockBegin
  2
*PAPER_SPACE
 70
0
 10
0.0
 20
0.0
 30
0.0
  3
*PAPER_SPACE
  1

  0
ENDBLK
  5
1D
100
AcDbEntity
  8
0
100
AcDbBlockEnd
  0
BLOCK
  5
20D
100
AcDbEntity
  8
0
100
AcDbBlockBegin
  2
_FILLED
 70
64
 10
0.0
 20
0.0
  3
_FILLED
  1

  0
SOLID
  5
20E
100
AcDbEntity
  8
0
  6
BYBLOCK
 62
0
100
AcDbTrace
 10
0.0
 20
0.0
 11
-1.0
 21
0.1818181818
 12
-1.0
 22
-0.1818181818
 13
-1.0
 23
-0.1818181818
  0
ENDBLK
  5
20F
100
AcDbEntity
  8
0
  6
BYBLOCK
 62
0
100
AcDbBlockEnd
  0
BLOCK
  5
210
100
AcDbEntity
  8
0
100
AcDbBlockBegin
 62
2
  6
CONTINUOUS
  2
*D0
 70
65
 10
0.0
 20
0.0
  3
*D0
  1

  0
MTEXT
  5
211
100
AcDbEntity
  8
0
100
AcDbMText
 62
2
  6
CONTINUOUS
  7
STANDARD
 71
2
 72
1
 10
174.6770767718
 20
73.3632990869
 30
0.0
 11
1.0
 21
0.0
 31
0.0
  1
205.2
 40
2.4
 41
10.2
  0
LINE
  5
212
100
AcDbEntity
  8
0
100
AcDbLine
 62
2
  6
CONTINUOUS
 10
46.8587116903
 20
126.4731098269
 11
46.8587116903
 21
71.4632990869
  0
LINE
  5
213
100
AcDbEntity
  8
0
100
AcDbLine
 62
2
  6
CONTINUOUS
 10
252.075209142
 20
85.7878800529
 11
252.075209142
 21
71.4632990869
  0
LINE
  5
214
100
AcDbEntity
  8
0
100
AcDbLine
 62
2
  6
CONTINUOUS
 10
46.8587116903
 20
72.1632990869
 11
168.8570767718
 21
72.1632990869
  0
LINE
  5
215
100
AcDbEntity
  8
0
100
AcDbLine
 62
2
  6
CONTINUOUS
 10
252.075209142
 20
72.1632990869
 11
180.4970767718
 21
72.1632990869
  0
INSERT
  5
216
100
AcDbEntity
  8
0
100
AcDbBlockReference
 62
2
  6
CONTINUOUS
  2
_FILLED
 10
46.8587116903
 20
72.1632990869
 41
2.2
 42
2.2
 43
2.2
 50
180.0
  0
INSERT
  5
217
100
AcDbEntity
  8
0
100
AcDbBlockReference
 62
2
  6
CONTINUOUS
  2
_FILLED
 10
252.075209142
 20
72.1632990869
 41
2.2
 42
2.2
 43
2.2
  0
ENDBLK
  5
218
100
AcDbEntity
  8
0
  6
BYBLOCK
 62
0
100
AcDbBlockEnd
  0
BLOCK
  5
219
100
AcDbEntity
  8
0
100
AcDbBlockBegin
 62
2
  6
CONTINUOUS
  2
*D1
 70
65
 10
0.0
 20
0.0
  3
*D1
  1

  0
MTEXT
  5
21A
100
AcDbEntity
  8
0
100
AcDbMText
 62
2
  6
CONTINUOUS
  7
STANDARD
 71
2
 72
1
 10
264.4443091383
 20
107.9958758269
 30
0.0
 11
1.0
 21
0.0
 31
0.0
  1
200
 40
2.4
 41
6.12
  0
LINE
  5
21B
100
AcDbEntity
  8
0
100
AcDbLine
 62
2
  6
CONTINUOUS
 10
213.7043541992
 20
206.7958758269
 11
265.1443091383
 21
206.7958758269
  0
LINE
  5
21C
100
AcDbEntity
  8
0
100
AcDbLine
 62
2
  6
CONTINUOUS
 10
223.7043541992
 20
6.7958758269
 11
265.1443091383
 21
6.7958758269
  0
LINE
  5
21D
100
AcDbEntity
  8
0
100
AcDbLine
 62
2
  6
CONTINUOUS
 10
264.4443091383
 20
206.7958758269
 11
264.4443091383
 21
108.7158758269
  0
LINE
  5
21E
100
AcDbEntity
  8
0
100
AcDbLine
 62
2
  6
CONTINUOUS
 10
264.4443091383
 20
6.7958758269
 11
264.4443091383
 21
104.8758758269
  0
INSERT
  5
21F
100
AcDbEntity
  8
0
100
AcDbBlockReference
 62
2
  6
CONTINUOUS
  2
_FILLED
 10
264.4443091383
 20
206.7958758269
 41
2.2
 42
2.2
 43
2.2
 50
90.0
  0
INSERT
  5
220
100
AcDbEntity
  8
0
100
AcDbBlockReference
 62
2
  6
CONTINUOUS
  2
_FILLED
 10
264.4443091383
 20
6.7958758269
 41
2.2
 42
2.2
 43
2.2
 50
270.0
  0
ENDBLK
  5
221
100
AcDbEntity
  8
0
  6
BYBLOCK
 62
0
100
AcDbBlockEnd
  0
ENDSEC
  0
SECTION
  2
ENTITIES
  0
DIMENSION
  5
222
100
AcDbEntity
  8
0
100
AcDbDimension
 62
2
  6
CONTINUOUS
  2
*D0
 10
252.075209142
 20
72.1632990869
 11
174.6770767718
 21
72.1632990869
 70
160
  3
DIMSTYLE_1
100
AcDbAlignedDimension
 13
46.8587116903
 23
127.1731098269
 14
252.075209142
 24
86.4878800529
100
AcDbRotatedDimension
  0
DIMENSION
  5
223
100
AcDbEntity
  8
0
100
AcDbDimension
 62
2
  6
CONTINUOUS
  2
*D1
 10
264.4443091383
 20
6.7958758269
 11
264.4443091383
 21
106.7958758269
 70
160
  3
DIMSTYLE_2
100
AcDbAlignedDimension
 13
213.0043541992
 23
206.7958758269
 14
223.0043541992
 24
6.7958758269
 50
270.0
100
AcDbRotatedDimension
  0
MTEXT
  5
224
100
AcDbEntity
  8
0
100
AcDbMText
 62
2
  6
CONTINUOUS
  7
STANDARD
 71
3
 72
1
 10
259.001455481
 20
12.266895557
 30
0.0
 11
1.0
 21
0.0
 31
0.0
  1
SCALE  1:1
 40
2.4
 41
20.4
  0
LINE
  5
225
100
AcDbEntity
  8
AXIS
100
AcDbLine
 62
7
  6
CONTINUOUS
 10
47.605127982
 20
132.0030357118
 11
67.7507704909
 21
195.6258017117
  0
LINE
  5
226
100
AcDbEntity
  8
AXIS
100
AcDbLine
 62
7
  6
CONTINUOUS
 10
57.0794081075
 20
21.2479443113
 11
46.9337655986
 21
125.6251783114
  0
LINE
  5
227
100
AcDbEntity
  8
AXIS
100
AcDbLine
 62
7
  6
CONTINUOUS
 10
223.0043541992
 20
6.7958758269
 11
73.0043541992
 21
6.7958758269
  0
LINE
  5
228
100
AcDbEntity
  8
AXIS
100
AcDbLine
 62
2
  6
CENTER
 10
62.9043541992
 20
126.8958758269
 11
62.9043541992
 21
118.5208758269
  0
LINE
  5
229
100
AcDbEntity
  8
AXIS
100
AcDbLine
 62
2
  6
CENTER
 10
62.9043541992
 20
126.8958758269
 11
62.9043541992
 21
135.2708758269
  0
LINE
  5
22A
100
AcDbEntity
  8
AXIS
100
AcDbLine
 62
2
  6
CENTER
 10
71.2043541992
 20
42.3958758269
 11
71.2043541992
 21
34.0208758269
  0
LINE
  5
22B
100
AcDbEntity
  8
AXIS
100
AcDbLine
 62
2
  6
CENTER
 10
71.2043541992
 20
42.3958758269
 11
71.2043541992
 21
50.7708758269
  0
LINE
  5
22C
100
AcDbEntity
  8
AXIS
100
AcDbLine
 62
2
  6
CENTER
 10
72.5043541992
 20
22.7958758269
 11
72.5043541992
 21
12.2958758269
  0
LINE
  5
22D
100
AcDbEntity
  8
AXIS
100
AcDbLine
 62
2
  6
CENTER
 10
72.5043541992
 20
22.7958758269
 11
72.5043541992
 21
33.2958758269
  0
LINE
  5
22E
100
AcDbEntity
  8
AXIS
100
AcDbLine
 62
2
  6
CENTER
 10
223.0043541992
 20
22.7958758269
 11
212.5043541992
 21
22.7958758269
  0
LINE
  5
22F
100
AcDbEntity
  8
AXIS
100
AcDbLine
 62
2
  6
CENTER
 10
72.5043541992
 20
22.7958758269
 11
62.0043541992
 21
22.7958758269
  0
LINE
  5
230
100
AcDbEntity
  8
AXIS
100
AcDbLine
 62
2
  6
CENTER
 10
72.5043541992
 20
22.7958758269
 11
83.0043541992
 21
22.7958758269
  0
LINE
  5
231
100
AcDbEntity
  8
AXIS
100
AcDbLine
 62
2
  6
CENTER
 10
223.0043541992
 20
22.7958758269
 11
233.5043541992
 21
22.7958758269
  0
LINE
  5
232
100
AcDbEntity
  8
AXIS
100
AcDbLine
 62
2
  6
CENTER
 10
161.3043541992
 20
24.4958758269
 11
152.9293541992
 21
24.4958758269
  0
LINE
  5
233
100
AcDbEntity
  8
AXIS
100
AcDbLine
 62
2
  6
CENTER
 10
161.3043541992
 20
24.4958758269
 11
169.6793541992
 21
24.4958758269
  0
LINE
  5
234
100
AcDbEntity
  8
AXIS
100
AcDbLine
 62
2
  6
CENTER
 10
83.0043541992
 20
190.7958758269
 11
83.0043541992
 21
180.2958758269
  0
LINE
  5
235
100
AcDbEntity
  8
AXIS
100
AcDbLine
 62
2
  6
CENTER
 10
83.0043541992
 20
190.7958758269
 11
83.0043541992
 21
201.2958758269
  0
LINE
  5
236
100
AcDbEntity
  8
AXIS
100
AcDbLine
 62
2
  6
CENTER
 10
71.2043541992
 20
42.3958758269
 11
62.8293541992
 21
42.3958758269
  0
LINE
  5
237
100
AcDbEntity
  8
AXIS
100
AcDbLine
 62
2
  6
CENTER
 10
71.2043541992
 20
42.3958758269
 11
79.5793541992
 21
42.3958758269
  0
LINE
  5
238
100
AcDbEntity
  8
AXIS
100
AcDbLine
 62
2
  6
CENTER
 10
111.2043541992
 20
190.1958758269
 11
111.2043541992
 21
181.8208758269
  0
LINE
  5
239
100
AcDbEntity
  8
AXIS
100
AcDbLine
 62
2
  6
CENTER
 10
111.2043541992
 20
190.1958758269
 11
111.2043541992
 21
198.5708758269
  0
LINE
  5
23A
100
AcDbEntity
  8
AXIS
100
AcDbLine
 62
2
  6
CENTER
 10
128.9493985595
 20
64.8884498133
 11
105.8993985595
 21
64.8884498133
  0
LINE
  5
23B
100
AcDbEntity
  8
AXIS
100
AcDbLine
 62
2
  6
CENTER
 10
128.9493985595
 20
64.8884498133
 11
151.9993985595
 21
64.8884498133
  0
LINE
  5
23C
100
AcDbEntity
  8
AXIS
100
AcDbLine
 62
2
  6
CENTER
 10
128.9493985595
 20
64.8884498133
 11
128.9493985595
 21
41.8384498133
  0
LINE
  5
23D
100
AcDbEntity
  8
AXIS
100
AcDbLine
 62
2
  6
CENTER
 10
128.9493985595
 20
64.8884498133
 11
128.9493985595
 21
87.9384498133
  0
LINE
  5
23E
100
AcDbEntity
  8
AXIS
100
AcDbLine
 62
2
  6
CENTER
 10
240.0043541992
 20
86.0958758269
 11
231.6293541992
 21
86.0958758269
  0
LINE
  5
23F
100
AcDbEntity
  8
AXIS
100
AcDbLine
 62
2
  6
CENTER
 10
240.0043541992
 20
86.0958758269
 11
248.3793541992
 21
86.0958758269
  0
LINE
  5
240
100
AcDbEntity
  8
AXIS
100
AcDbLine
 62
2
  6
CENTER
 10
148.0043541992
 20
135.7958758269
 11
148.0043541992
 21
92.6920601842
  0
LINE
  5
241
100
AcDbEntity
  8
AXIS
100
AcDbLine
 62
2
  6
CENTER
 10
148.0043541992
 20
135.7958758269
 11
148.0043541992
 21
178.8996914696
  0
LINE
  5
242
100
AcDbEntity
  8
AXIS
100
AcDbLine
 62
2
  6
CENTER
 10
161.3043541992
 20
24.4958758269
 11
161.3043541992
 21
16.1208758269
  0
LINE
  5
243
100
AcDbEntity
  8
AXIS
100
AcDbLine
 62
2
  6
CENTER
 10
161.3043541992
 20
24.4958758269
 11
161.3043541992
 21
32.8708758269
  0
LINE
  5
244
100
AcDbEntity
  8
AXIS
100
AcDbLine
 62
2
  6
CENTER
 10
62.9043541992
 20
126.8958758269
 11
54.5293541992
 21
126.8958758269
  0
LINE
  5
245
100
AcDbEntity
  8
AXIS
100
AcDbLine
 62
2
  6
CENTER
 10
62.9043541992
 20
126.8958758269
 11
71.2793541992
 21
126.8958758269
  0
LINE
  5
246
100
AcDbEntity
  8
AXIS
100
AcDbLine
 62
2
  6
CENTER
 10
148.0043541992
 20
135.7958758269
 11
104.9005385565
 21
135.7958758269
  0
LINE
  5
247
100
AcDbEntity
  8
AXIS
100
AcDbLine
 62
2
  6
CENTER
 10
148.0043541992
 20
135.7958758269
 11
191.1081698419
 21
135.7958758269
  0
LINE
  5
248
100
AcDbEntity
  8
AXIS
100
AcDbLine
 62
2
  6
CENTER
 10
192.2043541992
 20
179.6958758269
 11
192.2043541992
 21
171.3208758269
  0
LINE
  5
249
100
AcDbEntity
  8
AXIS
100
AcDbLine
 62
2
  6
CENTER
 10
192.2043541992
 20
179.6958758269
 11
192.2043541992
 21
188.0708758269
  0
LINE
  5
24A
100
AcDbEntity
  8
AXIS
100
AcDbLine
 62
2
  6
CENTER
 10
213.0043541992
 20
190.7958758269
 11
213.0043541992
 21
180.2958758269
  0
LINE
  5
24B
100
AcDbEntity
  8
AXIS
100
AcDbLine
 62
2
  6
CENTER
 10
213.0043541992
 20
190.7958758269
 11
213.0043541992
 21
201.2958758269
  0
LINE
  5
24C
100
AcDbEntity
  8
AXIS
100
AcDbLine
 62
2
  6
CENTER
 10
223.0043541992
 20
22.7958758269
 11
223.0043541992
 21
12.2958758269
  0
LINE
  5
24D
100
AcDbEntity
  8
AXIS
100
AcDbLine
 62
2
  6
CENTER
 10
223.0043541992
 20
22.7958758269
 11
223.0043541992
 21
33.2958758269
  0
LINE
  5
24E
100
AcDbEntity
  8
AXIS
100
AcDbLine
 62
2
  6
CENTER
 10
192.2043541992
 20
179.6958758269
 11
183.8293541992
 21
179.6958758269
  0
LINE
  5
24F
100
AcDbEntity
  8
AXIS
100
AcDbLine
 62
2
  6
CENTER
 10
192.2043541992
 20
179.6958758269
 11
200.5793541992
 21
179.6958758269
  0
LINE
  5
250
100
AcDbEntity
  8
AXIS
100
AcDbLine
 62
2
  6
CENTER
 10
111.2043541992
 20
190.1958758269
 11
102.8293541992
 21
190.1958758269
  0
LINE
  5
251
100
AcDbEntity
  8
AXIS
100
AcDbLine
 62
2
  6
CENTER
 10
111.2043541992
 20
190.1958758269
 11
119.5793541992
 21
190.1958758269
  0
LINE
  5
252
100
AcDbEntity
  8
AXIS
100
AcDbLine
 62
2
  6
CENTER
 10
213.0043541992
 20
190.7958758269
 11
202.5043541992
 21
190.7958758269
  0
LINE
  5
253
100
AcDbEntity
  8
AXIS
100
AcDbLine
 62
2
  6
CENTER
 10
83.0043541992
 20
190.7958758269
 11
72.5043541992
 21
190.7958758269
  0
LINE
  5
254
100
AcDbEntity
  8
AXIS
100
AcDbLine
 62
2
  6
CENTER
 10
83.0043541992
 20
190.7958758269
 11
93.5043541992
 21
190.7958758269
  0
LINE
  5
255
100
AcDbEntity
  8
AXIS
100
AcDbLine
 62
2
  6
CENTER
 10
213.0043541992
 20
190.7958758269
 11
223.5043541992
 21
190.7958758269
  0
LINE
  5
256
100
AcDbEntity
  8
AXIS
100
AcDbLine
 62
2
  6
CENTER
 10
240.0043541992
 20
86.0958758269
 11
240.0043541992
 21
77.7208758269
  0
LINE
  5
257
100
AcDbEntity
  8
AXIS
100
AcDbLine
 62
2
  6
CENTER
 10
240.0043541992
 20
86.0958758269
 11
240.0043541992
 21
94.4708758269
  0
LINE
  5
258
100
AcDbEntity
  8
AXIS
100
AcDbLine
 62
7
  6
CONTINUOUS
 10
228.629809676
 20
194.2375529099
 11
251.7943007496
 21
89.0691378652
  0
LINE
  5
259
100
AcDbEntity
  8
AXIS
100
AcDbLine
 62
7
  6
CONTINUOUS
 10
251.833213568
 20
84.0901036
 11
238.6816934339
 21
19.5988405563
  0
LINE
  5
25A
100
AcDbEntity
  8
AXIS
100
AcDbLine
 62
7
  6
CONTINUOUS
 10
83.0043541992
 20
206.7958758269
 11
213.0043541992
 21
206.7958758269
  0
CIRCLE
  5
25B
100
AcDbEntity
  8
AXIS
100
AcDbCircle
 62
7
  6
CONTINUOUS
 10
128.9493985595
 20
64.8884498133
 40
19.05
  0
ARC
  5
25C
100
AcDbEntity
  8
AXIS
100
AcDbCircle
 62
7
  6
CONTINUOUS
 10
73.0043541992
 20
22.7958758269
 40
16.0
100
AcDbArc
 50
185.5518050746
 51
270.0
  0
CIRCLE
  5
25D
100
AcDbEntity
  8
AXIS
100
AcDbCircle
 62
7
  6
CONTINUOUS
 10
72.5043541992
 20
22.7958758269
 40
12.7
  0
CIRCLE
  5
25E
100
AcDbEntity
  8
0
100
AcDbCircle
 62
9
  6
CONTINUOUS
 10
72.5043541992
 20
22.7958758269
 40
12.2
  0
CIRCLE
  5
25F
100
AcDbEntity
  8
AXIS
100
AcDbCircle
 62
7
  6
CONTINUOUS
 10
72.5043541992
 20
22.7958758269
 40
6.5
  0
ARC
  5
260
100
AcDbEntity
  8
0
100
AcDbCircle
 62
2
  6
CONTINUOUS
 10
71.2043541992
 20
42.3958758269
 40
5.0
100
AcDbArc
 50
255.0
 51
195.0
  0
CIRCLE
  5
261
100
AcDbEntity
  8
AXIS
100
AcDbCircle
 62
7
  6
CONTINUOUS
 10
71.2043541992
 20
42.3958758269
 40
4.375
  0
CIRCLE
  5
262
100
AcDbEntity
  8
AXIS
100
AcDbCircle
 62
7
  6
CONTINUOUS
 10
148.0043541992
 20
135.7958758269
 40
38.7375
  0
CIRCLE
  5
263
100
AcDbEntity
  8
0
100
AcDbCircle
 62
9
  6
CONTINUOUS
 10
148.0043541992
 20
135.7958758269
 40
38.2375
  0
CIRCLE
  5
264
100
AcDbEntity
  8
0
100
AcDbCircle
 62
9
  6
CONTINUOUS
 10
148.0043541992
 20
135.7958758269
 40
26.5
  0
CIRCLE
  5
265
100
AcDbEntity
  8
AXIS
100
AcDbCircle
 62
7
  6
CONTINUOUS
 10
148.0043541992
 20
135.7958758269
 40
26.0
  0
CIRCLE
  5
266
100
AcDbEntity
  8
AXIS
100
AcDbCircle
 62
7
  6
CONTINUOUS
 10
148.0043541992
 20
135.7958758269
 40
22.5
  0
ARC
  5
267
100
AcDbEntity
  8
AXIS
100
AcDbCircle
 62
7
  6
CONTINUOUS
 10
83.0043541992
 20
190.7958758269
 40
16.0
100
AcDbArc
 50
90.0
 51
162.4300235624
  0
ARC
  5
268
100
AcDbEntity
  8
AXIS
100
AcDbCircle
 62
7
  6
CONTINUOUS
 10
62.8587116903
 20
127.1731098269
 40
16.0
100
AcDbArc
 50
162.4300235624
 51
185.5518050746
  0
CIRCLE
  5
269
100
AcDbEntity
  8
AXIS
100
AcDbCircle
 62
7
  6
CONTINUOUS
 10
83.0043541992
 20
190.7958758269
 40
12.7
  0
CIRCLE
  5
26A
100
AcDbEntity
  8
0
100
AcDbCircle
 62
9
  6
CONTINUOUS
 10
83.0043541992
 20
190.7958758269
 40
12.2
  0
CIRCLE
  5
26B
100
AcDbEntity
  8
AXIS
100
AcDbCircle
 62
7
  6
CONTINUOUS
 10
83.0043541992
 20
190.7958758269
 40
6.5
  0
ARC
  5
26C
100
AcDbEntity
  8
0
100
AcDbCircle
 62
2
  6
CONTINUOUS
 10
62.9043541992
 20
126.8958758269
 40
5.0
100
AcDbArc
 50
255.0
 51
195.0
  0
ARC
  5
26D
100
AcDbEntity
  8
0
100
AcDbCircle
 62
2
  6
CONTINUOUS
 10
111.2043541992
 20
190.1958758269
 40
5.0
100
AcDbArc
 50
255.0
 51
195.0
  0
CIRCLE
  5
26E
100
AcDbEntity
  8
AXIS
100
AcDbCircle
 62
7
  6
CONTINUOUS
 10
111.2043541992
 20
190.1958758269
 40
4.375
  0
CIRCLE
  5
26F
100
AcDbEntity
  8
AXIS
100
AcDbCircle
 62
7
  6
CONTINUOUS
 10
62.9043541992
 20
126.8958758269
 40
4.375
  0
ARC
  5
270
100
AcDbEntity
  8
AXIS
100
AcDbCircle
 62
7
  6
CONTINUOUS
 10
223.0043541992
 20
22.7958758269
 40
16.0
100
AcDbArc
 50
270.0
 51
348.4738763365
  0
CIRCLE
  5
271
100
AcDbEntity
  8
AXIS
100
AcDbCircle
 62
7
  6
CONTINUOUS
 10
223.0043541992
 20
22.7958758269
 40
12.7
  0
CIRCLE
  5
272
100
AcDbEntity
  8
0
100
AcDbCircle
 62
9
  6
CONTINUOUS
 10
223.0043541992
 20
22.7958758269
 40
12.2
  0
ARC
  5
273
100
AcDbEntity
  8
AXIS
100
AcDbCircle
 62
7
  6
CONTINUOUS
 10
240.075209142
 20
86.4878800529
 40
12.0
100
AcDbArc
 50
348.4738763365
 51
12.4216767987
  0
CIRCLE
  5
274
100
AcDbEntity
  8
AXIS
100
AcDbCircle
 62
7
  6
CONTINUOUS
 10
223.0043541992
 20
22.7958758269
 40
6.5
  0
ARC
  5
275
100
AcDbEntity
  8
0
100
AcDbCircle
 62
2
  6
CONTINUOUS
 10
161.3043541992
 20
24.4958758269
 40
5.0
100
AcDbArc
 50
255.0
 51
195.0
  0
ARC
  5
276
100
AcDbEntity
  8
0
100
AcDbCircle
 62
2
  6
CONTINUOUS
 10
240.0043541992
 20
86.0958758269
 40
5.0
100
AcDbArc
 50
255.0
 51
195.0
  0
CIRCLE
  5
277
100
AcDbEntity
  8
AXIS
100
AcDbCircle
 62
7
  6
CONTINUOUS
 10
240.0043541992
 20
86.0958758269
 40
4.375
  0
CIRCLE
  5
278
100
AcDbEntity
  8
AXIS
100
AcDbCircle
 62
7
  6
CONTINUOUS
 10
161.3043541992
 20
24.4958758269
 40
4.375
  0
ARC
  5
279
100
AcDbEntity
  8
AXIS
100
AcDbCircle
 62
7
  6
CONTINUOUS
 10
213.0043541992
 20
190.7958758269
 40
16.0
100
AcDbArc
 50
12.4216767987
 51
90.0
  0
CIRCLE
  5
27A
100
AcDbEntity
  8
AXIS
100
AcDbCircle
 62
7
  6
CONTINUOUS
 10
213.0043541992
 20
190.7958758269
 40
12.7
  0
CIRCLE
  5
27B
100
AcDbEntity
  8
0
100
AcDbCircle
 62
9
  6
CONTINUOUS
 10
213.0043541992
 20
190.7958758269
 40
12.2
  0
CIRCLE
  5
27C
100
AcDbEntity
  8
AXIS
100
AcDbCircle
 62
7
  6
CONTINUOUS
 10
213.0043541992
 20
190.7958758269
 40
6.5
  0
ARC
  5
27D
100
AcDbEntity
  8
0
100
AcDbCircle
 62
2
  6
CONTINUOUS
 10
192.2043541992
 20
179.6958758269
 40
5.0
100
AcDbArc
 50
255.0
 51
195.0
  0
CIRCLE
  5
27E
100
AcDbEntity
  8
AXIS
100
AcDbCircle
 62
7
  6
CONTINUOUS
 10
192.2043541992
 20
179.6958758269
 40
4.375
  0
ENDSEC
  0
SECTION
  2
OBJECTS
  0
DICTIONARY
  5
27F
100
AcDbDictionary
  3
ACAD_GROUP
350
280
  3
ACAD_MLINESTYLE
350
281
  0
DICTIONARY
  5
280
102
{ACAD_REACTORS
330
27F
102
}
100
AcDbDictionary
  0
DICTIONARY
  5
281
102
{ACAD_REACTORS
330
27F
102
}
100
AcDbDictionary
  3
STANDARD
350
282
  0
MLINESTYLE
  5
282
102
{ACAD_REACTORS
330
281
102
}
100
AcDbMlineStyle
  2
STANDARD
 70
0
  3

 62
256
 51
90.0
 52
90.0
 71
2
 49
0.5
 62
256
  6
BYLAYER
 49
-0.5
 62
256
  6
BYLAYER
  0
ENDSEC
  0
EOF
