999
DXF file: bhousing_gasket.dxf
999
Pro/ENGINEER 2013240 by Parametric Technology Corporation
  0
SECTION
  2
HEADER
  9
$ACADVER
  1
AC1014
  9
$DWGCODEPAGE
  3
ANSI_1252
  9
$EXTMAX
 10
210.0
 20
297.0
 30
0.0
  9
$EXTMIN
 10
0.0
 20
0.0
 30
0.0
  9
$LIMMIN
 10
0.0
 20
0.0
  9
$LIMMAX
 10
210.0
 20
297.0
  9
$VIEWCTR
 10
105.0
 20
148.5
  9
$VIEWSIZE
 40
297.0
  9
$CLAYER
  8
0
  9
$LTSCALE
 40
19.36
  9
$CELTYPE
  6
BYLAYER
  9
$DIMSCALE
 40
1.0
  9
$DIMASZ
 40
2.2
  9
$DIMEXO
 40
0.7
  9
$DIMDLI
 40
13.376
  9
$DIMEXE
 40
0.7
  9
$DIMCEN
 40
3.168
  9
$DIMLFAC
 40
1.0
  9
$DIMBLK
  1
_ARROW_FILLED
  9
$DIMTXT
 40
2.4
  9
$DIMTOL
 70
1
  9
$DIMLIM
 70
0
  9
$DIMTFAC
 40
1.0
  9
$DIMTP
 40
0.001
  9
$DIMTM
 40
0.001
  9
$DIMGAP
 40
0.625
  9
$PDMODE
 70
3
  9
$PDSIZE
 40
1.0
  9
$HANDSEED
  5
370
  9
$TILEMODE
 70
1
  9
$MEASUREMENT
 70
1
  0
ENDSEC
  0
SECTION
  2
CLASSES
  0
ENDSEC
  0
SECTION
  2
TABLES
  0
TABLE
  2
VPORT
  5
8
100
AcDbSymbolTable
 70
2
  0
VPORT
  5
1F4
100
AcDbSymbolTableRecord
100
AcDbViewportTableRecord
  2
*ACTIVE
 70
0
 10
0.0
 20
0.0
 11
1.0
 21
1.0
 12
105.0
 22
148.5
 13
0.0
 23
0.0
 14
1.0
 24
1.0
 15
0.0
 25
0.0
 16
0.0
 26
0.0
 36
1.0
 17
0.0
 27
0.0
 37
0.0
 40
297.0
 41
0.7070707071
 42
50.0
 43
0.0
 44
0.0
 50
0.0
 51
0.0
 71
0
 72
100
 73
1
 74
1
 75
0
 76
0
 77
0
 78
0
  0
ENDTAB
  0
TABLE
  2
LTYPE
  5
5
100
AcDbSymbolTable
 70
6
  0
LTYPE
  5
14
100
AcDbSymbolTableRecord
100
AcDbLinetypeTableRecord
  2
BYBLOCK
 70
0
  3

 72
65
 73
0
 40
0.0
  0
LTYPE
  5
15
100
AcDbSymbolTableRecord
100
AcDbLinetypeTableRecord
  2
BYLAYER
 70
0
  3

 72
65
 73
0
 40
0.0
  0
LTYPE
  5
16
100
AcDbSymbolTableRecord
100
AcDbLinetypeTableRecord
  2
CONTINUOUS
 70
64
  3
Solid line
 72
65
 73
0
 40
0.0
  0
LTYPE
  5
1F5
100
AcDbSymbolTableRecord
100
AcDbLinetypeTableRecord
  2
CENTER
 70
64
  3
____ _ ____ _ ____ _ ____ _ ____ _ ____ _ ____
 72
65
 73
4
 40
0.6
 49
0.375
 74
0
 49
-0.075
 74
0
 49
0.075
 74
0
 49
-0.075
 74
0
  0
LTYPE
  5
1F6
100
AcDbSymbolTableRecord
100
AcDbLinetypeTableRecord
  2
HIDDEN
 70
64
  3
- - - - - - - - - - - - - - - - - - - -
 72
65
 73
2
 40
0.2
 49
0.1
 74
0
 49
-0.1
 74
0
  0
LTYPE
  5
1F7
100
AcDbSymbolTableRecord
100
AcDbLinetypeTableRecord
  2
PHANTOM
 70
64
  3
_____ _ _ _____ _ _ _____ _ _ _____
 72
65
 73
6
 40
0.8
 49
0.45
 74
0
 49
-0.05
 74
0
 49
0.1
 74
0
 49
-0.05
 74
0
 49
0.1
 74
0
 49
-0.05
 74
0
  0
LTYPE
  5
1F8
100
AcDbSymbolTableRecord
100
AcDbLinetypeTableRecord
  2
DOT
 70
64
  3
. . . . . . . . . . . . . . . . . . . .
 72
65
 73
2
 40
0.2
 49
0.1
 74
0
 49
-0.1
 74
0
  0
LTYPE
  5
1F9
100
AcDbSymbolTableRecord
100
AcDbLinetypeTableRecord
  2
DASHED
 70
64
  3
- - - - - - - - - - - - - - - - - - - -
 72
65
 73
2
 40
0.2
 49
0.1
 74
0
 49
-0.1
 74
0
  0
ENDTAB
  0
TABLE
  2
LAYER
  5
2
100
AcDbSymbolTable
 70
36
  0
LAYER
  5
10
100
AcDbSymbolTableRecord
100
AcDbLayerTableRecord
  2
0
 70
0
 62
7
  6
CONTINUOUS
  0
LAYER
  5
1FA
100
AcDbSymbolTableRecord
100
AcDbLayerTableRecord
  2
DEFAULT_1
 70
0
 62
7
  6
CENTER
  0
LAYER
  5
1FB
100
AcDbSymbolTableRecord
100
AcDbLayerTableRecord
  2
DEFAULT_2
 70
0
 62
8
  6
HIDDEN
  0
LAYER
  5
1FC
100
AcDbSymbolTableRecord
100
AcDbLayerTableRecord
  2
DEFAULT_3
 70
0
 62
7
  6
PHANTOM
  0
LAYER
  5
1FD
100
AcDbSymbolTableRecord
100
AcDbLayerTableRecord
  2
AXIS
 70
0
 62
7
  6
CONTINUOUS
  0
LAYER
  5
1FE
100
AcDbSymbolTableRecord
100
AcDbLayerTableRecord
  2
CSYS
 70
0
 62
7
  6
CONTINUOUS
  0
LAYER
  5
1FF
100
AcDbSymbolTableRecord
100
AcDbLayerTableRecord
  2
CURVES
 70
0
 62
7
  6
CONTINUOUS
  0
LAYER
  5
200
100
AcDbSymbolTableRecord
100
AcDbLayerTableRecord
  2
DATUM
 70
0
 62
7
  6
CONTINUOUS
  0
ENDTAB
  0
TABLE
  2
STYLE
  5
3
100
AcDbSymbolTable
 70
1
  0
STYLE
  5
11
100
AcDbSymbolTableRecord
100
AcDbTextStyleTableRecord
  2
STANDARD
 70
0
 40
0.0
 41
0.85
 50
0.0
 71
0
 42
0.2
  3
txt
  4

  0
STYLE
  5
201
100
AcDbSymbolTableRecord
100
AcDbTextStyleTableRecord
  2
TEXTSTYLE_1
 70
0
 40
0.0
 41
0.8
 50
0.0
 71
0
 42
0.2
  3
gdt
  4

  0
STYLE
  5
202
100
AcDbSymbolTableRecord
100
AcDbTextStyleTableRecord
  2
TEXTSTYLE_2
 70
0
 40
0.0
 41
0.85
 50
0.0
 71
0
 42
0.2
  3
gdt
  4

  0
ENDTAB
  0
TABLE
  2
VIEW
  5
6
100
AcDbSymbolTable
 70
0
  0
ENDTAB
  0
TABLE
  2
UCS
  5
7
100
AcDbSymbolTable
 70
0
  0
ENDTAB
  0
TABLE
  2
APPID
  5
9
100
AcDbSymbolTable
 70
1
  0
APPID
  5
203
100
AcDbSymbolTableRecord
100
AcDbRegAppTableRecord
  2
ACAD
 70
0
  0
ENDTAB
  0
TABLE
  2
BLOCK_RECORD
  5
1
100
AcDbSymbolTable
 70
0
  0
BLOCK_RECORD
  5
1F
100
AcDbSymbolTableRecord
100
AcDbBlockTableRecord
  2
*MODEL_SPACE
  0
BLOCK_RECORD
  5
1B
100
AcDbSymbolTableRecord
100
AcDbBlockTableRecord
  2
*PAPER_SPACE
  0
BLOCK_RECORD
  5
204
100
AcDbSymbolTableRecord
100
AcDbBlockTableRecord
  2
_ARROW_FILLED
  0
BLOCK_RECORD
  5
205
100
AcDbSymbolTableRecord
100
AcDbBlockTableRecord
  2
*D0
  0
BLOCK_RECORD
  5
206
100
AcDbSymbolTableRecord
100
AcDbBlockTableRecord
  2
*D1
  0
BLOCK_RECORD
  5
207
100
AcDbSymbolTableRecord
100
AcDbBlockTableRecord
  2
*D2
  0
BLOCK_RECORD
  5
208
100
AcDbSymbolTableRecord
100
AcDbBlockTableRecord
  2
*D3
  0
BLOCK_RECORD
  5
209
100
AcDbSymbolTableRecord
100
AcDbBlockTableRecord
  2
*D4
  0
BLOCK_RECORD
  5
20A
100
AcDbSymbolTableRecord
100
AcDbBlockTableRecord
  2
*D5
  0
BLOCK_RECORD
  5
20B
100
AcDbSymbolTableRecord
100
AcDbBlockTableRecord
  2
*D6
  0
BLOCK_RECORD
  5
20C
100
AcDbSymbolTableRecord
100
AcDbBlockTableRecord
  2
*D7
  0
BLOCK_RECORD
  5
20D
100
AcDbSymbolTableRecord
100
AcDbBlockTableRecord
  2
*D8
  0
BLOCK_RECORD
  5
20E
100
AcDbSymbolTableRecord
100
AcDbBlockTableRecord
  2
*D9
  0
BLOCK_RECORD
  5
20F
100
AcDbSymbolTableRecord
100
AcDbBlockTableRecord
  2
*D10
  0
BLOCK_RECORD
  5
210
100
AcDbSymbolTableRecord
100
AcDbBlockTableRecord
  2
*D11
  0
BLOCK_RECORD
  5
211
100
AcDbSymbolTableRecord
100
AcDbBlockTableRecord
  2
*D12
  0
BLOCK_RECORD
  5
212
100
AcDbSymbolTableRecord
100
AcDbBlockTableRecord
  2
*D13
  0
BLOCK_RECORD
  5
213
100
AcDbSymbolTableRecord
100
AcDbBlockTableRecord
  2
*D14
  0
BLOCK_RECORD
  5
214
100
AcDbSymbolTableRecord
100
AcDbBlockTableRecord
  2
*D15
  0
BLOCK_RECORD
  5
215
100
AcDbSymbolTableRecord
100
AcDbBlockTableRecord
  2
*D16
  0
BLOCK_RECORD
  5
216
100
AcDbSymbolTableRecord
100
AcDbBlockTableRecord
  2
*D17
  0
BLOCK_RECORD
  5
217
100
AcDbSymbolTableRecord
100
AcDbBlockTableRecord
  2
*D18
  0
BLOCK_RECORD
  5
218
100
AcDbSymbolTableRecord
100
AcDbBlockTableRecord
  2
*D19
  0
BLOCK_RECORD
  5
219
100
AcDbSymbolTableRecord
100
AcDbBlockTableRecord
  2
*D20
  0
BLOCK_RECORD
  5
21A
100
AcDbSymbolTableRecord
100
AcDbBlockTableRecord
  2
*D21
  0
BLOCK_RECORD
  5
21B
100
AcDbSymbolTableRecord
100
AcDbBlockTableRecord
  2
*D22
  0
BLOCK_RECORD
  5
21C
100
AcDbSymbolTableRecord
100
AcDbBlockTableRecord
  2
*D23
  0
BLOCK_RECORD
  5
21D
100
AcDbSymbolTableRecord
100
AcDbBlockTableRecord
  2
*D24
  0
ENDTAB
  0
TABLE
  2
DIMSTYLE
  5
A
100
AcDbSymbolTable
 70
1
  0
DIMSTYLE
105
21E
100
AcDbSymbolTableRecord
100
AcDbDimStyleTableRecord
  2
STANDARD
 70
0
  3

  4

  5
_ARROW_FILLED
  6
_ARROW_FILLED
  7
_ARROW_FILLED
 40
1.0
 41
2.2
 42
0.7
 43
0.38
 44
0.7
 45
0.0
 46
0.0
 47
0.001
 48
0.001
140
2.4
141
0.09
142
0.0
143
25.4
144
1.0
145
0.0
146
1.0
147
0.625
 71
1.0
 72
0.0
 73
1
 74
1
 75
0
 76
0
 77
0
 78
8
170
0
171
2
172
0
173
0
174
0
175
0
176
0
177
0
178
0
270
2
271
3
272
3
273
2
274
2
275
0
280
0
281
0
282
0
283
1
284
8
285
0
286
0
287
3
288
0
340
11
  0
DIMSTYLE
105
21F
100
AcDbSymbolTableRecord
100
AcDbDimStyleTableRecord
  2
DIMSTYLE_1
 70
0
  3

  4

  5
_ARROW_FILLED
  6
_ARROW_FILLED
  7
_ARROW_FILLED
 40
1.0
 41
2.2
 42
0.7
 43
0.38
 44
0.7
 45
0.0
 46
0.0
 47
0.001
 48
0.001
140
2.4
141
0.09
142
0.0
143
25.4
144
1.0
145
0.0
146
1.0
147
0.625
 71
0.0
 72
0.0
 73
1
 74
1
 75
0
 76
0
 77
0
 78
8
170
0
171
2
172
0
173
0
174
0
175
0
176
0
177
0
178
0
270
2
271
3
272
3
273
2
274
2
275
0
280
0
281
0
282
0
283
1
284
8
285
0
286
0
287
3
288
0
340
11
  0
DIMSTYLE
105
220
100
AcDbSymbolTableRecord
100
AcDbDimStyleTableRecord
  2
DIMSTYLE_2
 70
0
  3

  4

  5
_ARROW_FILLED
  6
_ARROW_FILLED
  7
_ARROW_FILLED
 40
1.0
 41
2.2
 42
0.7
 43
0.38
 44
0.7
 45
0.0
 46
0.0
 47
0.5
 48
0.5
140
2.4
141
0.09
142
0.0
143
25.4
144
1.0
145
0.0
146
1.0
147
0.625
 71
0.0
 72
0.0
 73
1
 74
1
 75
0
 76
0
 77
0
 78
8
170
0
171
2
172
0
173
0
174
0
175
0
176
0
177
0
178
0
270
2
271
1
272
1
273
2
274
2
275
0
280
0
281
0
282
0
283
1
284
8
285
0
286
0
287
3
288
0
340
11
  0
DIMSTYLE
105
221
100
AcDbSymbolTableRecord
100
AcDbDimStyleTableRecord
  2
DIMSTYLE_3
 70
0
  3

  4

  5
_ARROW_FILLED
  6
_ARROW_FILLED
  7
_ARROW_FILLED
 40
1.0
 41
2.2
 42
0.7
 43
0.38
 44
0.7
 45
0.0
 46
0.0
 47
0.001
 48
0.001
140
2.4
141
0.09
142
0.0
143
25.4
144
1.0
145
0.0
146
1.0
147
0.72
 71
0.0
 72
0.0
 73
1
 74
1
 75
0
 76
0
 77
0
 78
8
170
0
171
2
172
0
173
0
174
0
175
0
176
0
177
0
178
0
270
2
271
3
272
3
273
2
274
2
275
0
280
0
281
0
282
0
283
1
284
8
285
0
286
0
287
3
288
0
340
11
  0
DIMSTYLE
105
222
100
AcDbSymbolTableRecord
100
AcDbDimStyleTableRecord
  2
DIMSTYLE_4
 70
0
  3

  4

  5
_ARROW_FILLED
  6
_ARROW_FILLED
  7
_ARROW_FILLED
 40
1.0
 41
2.2
 42
0.7
 43
0.38
 44
0.7
 45
0.0
 46
0.0
 47
0.001
 48
0.001
140
2.4
141
0.09
142
0.0
143
25.4
144
1.0
145
0.0
146
1.0
147
0.625
 71
0.0
 72
0.0
 73
1
 74
1
 75
0
 76
0
 77
0
 78
8
170
0
171
2
172
0
173
0
174
0
175
0
176
0
177
0
178
0
270
2
271
3
272
3
273
2
274
2
275
0
280
0
281
0
282
0
283
1
284
8
285
0
286
0
287
3
288
0
340
11
  0
DIMSTYLE
105
223
100
AcDbSymbolTableRecord
100
AcDbDimStyleTableRecord
  2
DIMSTYLE_5
 70
0
  3

  4

  5
_ARROW_FILLED
  6
_ARROW_FILLED
  7
_ARROW_FILLED
 40
1.0
 41
2.2
 42
0.7
 43
0.38
 44
0.7
 45
0.0
 46
0.0
 47
0.5
 48
0.5
140
2.4
141
0.09
142
0.0
143
25.4
144
1.0
145
0.0
146
1.0
147
0.625
 71
0.0
 72
0.0
 73
1
 74
1
 75
0
 76
0
 77
0
 78
8
170
0
171
2
172
0
173
0
174
0
175
0
176
0
177
0
178
0
270
2
271
3
272
3
273
2
274
2
275
0
280
0
281
0
282
0
283
1
284
8
285
0
286
0
287
3
288
0
340
11
  0
ENDTAB
  0
ENDSEC
  0
SECTION
  2
BLOCKS
  0
BLOCK
  5
20
100
AcDbEntity
  8
0
100
AcDbBlockBegin
  2
*MODEL_SPACE
 70
0
 10
0.0
 20
0.0
 30
0.0
  3
*MODEL_SPACE
  1

  0
ENDBLK
  5
21
100
AcDbEntity
  8
0
100
AcDbBlockEnd
  0
BLOCK
  5
1C
100
AcDbEntity
  8
0
100
AcDbBlockBegin
  2
*PAPER_SPACE
 70
0
 10
0.0
 20
0.0
 30
0.0
  3
*PAPER_SPACE
  1

  0
ENDBLK
  5
1D
100
AcDbEntity
  8
0
100
AcDbBlockEnd
  0
BLOCK
  5
224
100
AcDbEntity
  8
0
100
AcDbBlockBegin
  2
_ARROW_FILLED
 70
64
 10
0.0
 20
0.0
  3
_ARROW_FILLED
  1

  0
SOLID
  5
225
100
AcDbEntity
  8
0
  6
BYBLOCK
 62
0
100
AcDbTrace
 10
0.0
 20
0.0
 11
-1.0
 21
0.1818181818
 12
-1.0
 22
-0.1818181818
 13
-1.0
 23
-0.1818181818
  0
ENDBLK
  5
226
100
AcDbEntity
  8
0
  6
BYBLOCK
 62
0
100
AcDbBlockEnd
  0
BLOCK
  5
227
100
AcDbEntity
  8
0
100
AcDbBlockBegin
 62
2
  6
CONTINUOUS
  2
*D0
 70
65
 10
0.0
 20
0.0
  3
*D0
  1

  0
MTEXT
  5
228
100
AcDbEntity
  8
0
100
AcDbMText
 62
2
  6
CONTINUOUS
  7
TEXTSTYLE_2
 71
1
 72
1
 10
152.6717069967
 20
130.7720971872
 30
0.0
 11
1.0
 21
0.0
 31
0.0
  1
{\Fgdt;n}\Ftxt;6.8
 40
2.4
 41
9.32
  0
LINE
  5
229
100
AcDbEntity
  8
0
100
AcDbLine
 62
2
  6
CONTINUOUS
 10
144.0001926119
 20
141.4997244796
 11
146.0597013284
 21
129.5720971872
  0
LINE
  5
22A
100
AcDbEntity
  8
0
100
AcDbLine
 62
2
  6
CONTINUOUS
 10
146.0597013284
 20
129.5720971872
 11
151.4717069967
 21
129.5720971872
  0
INSERT
  5
22B
100
AcDbEntity
  8
0
100
AcDbBlockReference
 62
2
  6
CONTINUOUS
  2
_ARROW_FILLED
 10
144.0001926119
 20
141.4997244796
 41
2.2
 42
2.2
 43
2.2
 50
99.7965004146
  0
ENDBLK
  5
22C
100
AcDbEntity
  8
0
  6
BYBLOCK
 62
0
100
AcDbBlockEnd
  0
BLOCK
  5
22D
100
AcDbEntity
  8
0
100
AcDbBlockBegin
 62
2
  6
CONTINUOUS
  2
*D1
 70
65
 10
0.0
 20
0.0
  3
*D1
  1

  0
MTEXT
  5
22E
100
AcDbEntity
  8
0
100
AcDbMText
 62
2
  6
CONTINUOUS
  7
STANDARD
 71
2
 72
1
 10
156.4731846466
 20
151.6687766387
 30
0.0
 11
1.0
 21
0.0
 31
0.0
  1
19.5\Fgdt;{\Fgdt;~}
 40
2.4
 41
9.76
  0
LINE
  5
22F
100
AcDbEntity
  8
0
100
AcDbLine
 62
2
  6
CONTINUOUS
 10
150.2212339503
 20
160.1218104855
 11
157.9964988437
 21
160.1218104855
  0
LINE
  5
230
100
AcDbEntity
  8
0
100
AcDbLine
 62
2
  6
CONTINUOUS
 10
149.9111992356
 20
142.5520891421
 11
154.6868749023
 21
140.8609336921
  0
ARC
  5
231
100
AcDbEntity
  8
0
100
AcDbCircle
 62
2
  6
CONTINUOUS
 10
100.2958367376
 20
160.1218104855
 40
57.0006621061
100
AcDbArc
 50
352.202885046
 51
360.0
  0
ARC
  5
232
100
AcDbEntity
  8
0
100
AcDbCircle
 62
2
  6
CONTINUOUS
 10
100.2958367376
 20
160.1218104855
 40
57.0006621061
100
AcDbArc
 50
340.5
 51
348.2856041766
  0
SOLID
  5
233
100
AcDbEntity
  8
0
100
AcDbTrace
 62
2
  6
CONTINUOUS
 10
157.6539713512
 20
157.9145013983
 11
157.2964988437
 21
160.1218104855
 12
156.854120312
 22
157.9299388572
 13
156.854120312
 23
157.9299388572
  0
SOLID
  5
234
100
AcDbEntity
  8
0
100
AcDbTrace
 62
2
  6
CONTINUOUS
 10
154.3416832839
 20
143.3084166218
 11
154.0270258585
 21
141.0945984936
 12
155.1008091898
 22
143.0559728478
 13
155.1008091898
 23
143.0559728478
  0
ENDBLK
  5
235
100
AcDbEntity
  8
0
  6
BYBLOCK
 62
0
100
AcDbBlockEnd
  0
BLOCK
  5
236
100
AcDbEntity
  8
0
100
AcDbBlockBegin
 62
2
  6
CONTINUOUS
  2
*D2
 70
65
 10
0.0
 20
0.0
  3
*D2
  1

  0
MTEXT
  5
237
100
AcDbEntity
  8
0
100
AcDbMText
 62
2
  6
CONTINUOUS
  7
TEXTSTYLE_2
 71
2
 72
1
 10
111.5960905336
 20
178.3288076735
 30
0.0
 11
1.0
 21
0.0
 31
0.0
  1
{\Fgdt;n}\Ftxt;91.5
 40
2.4
 41
11.36
  0
LINE
  5
238
100
AcDbEntity
  8
0
100
AcDbLine
 62
2
  6
CONTINUOUS
 10
125.6147931827
 20
198.2270981045
 11
112.8718293985
 21
179.0488076735
  0
LINE
  5
239
100
AcDbEntity
  8
0
100
AcDbLine
 62
2
  6
CONTINUOUS
 10
74.9768802925
 20
122.0165228664
 11
110.3203516687
 21
175.2088076735
  0
INSERT
  5
23A
100
AcDbEntity
  8
0
100
AcDbBlockReference
 62
2
  6
CONTINUOUS
  2
_ARROW_FILLED
 10
125.6147931827
 20
198.2270981045
 41
2.2
 42
2.2
 43
2.2
 50
56.3980557433
  0
INSERT
  5
23B
100
AcDbEntity
  8
0
100
AcDbBlockReference
 62
2
  6
CONTINUOUS
  2
_ARROW_FILLED
 10
74.9768802925
 20
122.0165228664
 41
2.2
 42
2.2
 43
2.2
 50
236.3980557433
  0
ENDBLK
  5
23C
100
AcDbEntity
  8
0
  6
BYBLOCK
 62
0
100
AcDbBlockEnd
  0
BLOCK
  5
23D
100
AcDbEntity
  8
0
100
AcDbBlockBegin
 62
2
  6
CONTINUOUS
  2
*D3
 70
65
 10
0.0
 20
0.0
  3
*D3
  1

  0
MTEXT
  5
23E
100
AcDbEntity
  8
0
100
AcDbMText
 62
2
  6
CONTINUOUS
  7
STANDARD
 71
2
 72
1
 10
161.0881135021
 20
184.0511113987
 30
0.0
 11
1.0
 21
0.0
 31
0.0
  1
80\Fgdt;{\Fgdt;~}
 40
2.4
 41
5.68
  0
LINE
  5
23F
100
AcDbEntity
  8
0
100
AcDbLine
 62
2
  6
CONTINUOUS
 10
152.609599327
 20
141.5965355536
 11
162.1353845852
 21
138.2232780757
  0
LINE
  5
240
100
AcDbEntity
  8
0
100
AcDbLine
 62
2
  6
CONTINUOUS
 10
126.085605444
 20
205.7050723544
 11
132.6000060258
 21
217.219236402
  0
ARC
  5
241
100
AcDbEntity
  8
0
100
AcDbCircle
 62
2
  6
CONTINUOUS
 10
100.2958367376
 20
160.1218104855
 40
64.9024039171
100
AcDbArc
 50
340.5
 51
18.7006962953
  0
ARC
  5
242
100
AcDbEntity
  8
0
100
AcDbCircle
 62
2
  6
CONTINUOUS
 10
100.2958367376
 20
160.1218104855
 40
64.9024039171
100
AcDbArc
 50
22.3206915397
 51
60.5
  0
SOLID
  5
243
100
AcDbEntity
  8
0
100
AcDbTrace
 62
2
  6
CONTINUOUS
 10
161.7953934519
 20
140.6700156092
 11
161.4755355414
 21
138.4569428772
 12
162.5539241473
 22
140.4157889698
 13
162.5539241473
 23
140.4157889698
  0
SOLID
  5
244
100
AcDbEntity
  8
0
100
AcDbTrace
 62
2
  6
CONTINUOUS
 10
134.3542984112
 20
215.8391140842
 11
132.2553095337
 21
216.6099874149
 12
133.9486157107
 22
215.1496058925
 13
133.9486157107
 23
215.1496058925
  0
ENDBLK
  5
245
100
AcDbEntity
  8
0
  6
BYBLOCK
 62
0
100
AcDbBlockEnd
  0
BLOCK
  5
246
100
AcDbEntity
  8
0
100
AcDbBlockBegin
 62
2
  6
CONTINUOUS
  2
*D4
 70
65
 10
0.0
 20
0.0
  3
*D4
  1

  0
MTEXT
  5
247
100
AcDbEntity
  8
0
100
AcDbMText
 62
2
  6
CONTINUOUS
  7
TEXTSTYLE_2
 71
3
 72
1
 10
158.9257359024
 20
28.9513670585
 30
0.0
 11
1.0
 21
0.0
 31
0.0
  1
{\Fgdt;n}\Ftxt;12
 40
2.4
 41
7.28
  0
LINE
  5
248
100
AcDbEntity
  8
0
100
AcDbLine
 62
2
  6
CONTINUOUS
 10
172.1314322373
 20
42.0241105965
 11
163.2716062634
 21
27.7513670585
  0
LINE
  5
249
100
AcDbEntity
  8
0
100
AcDbLine
 62
2
  6
CONTINUOUS
 10
163.2716062634
 20
27.7513670585
 11
160.1257359024
 21
27.7513670585
  0
INSERT
  5
24A
100
AcDbEntity
  8
0
100
AcDbBlockReference
 62
2
  6
CONTINUOUS
  2
_ARROW_FILLED
 10
172.1314322373
 20
42.0241105965
 41
2.2
 42
2.2
 43
2.2
 50
58.169998379
  0
ENDBLK
  5
24B
100
AcDbEntity
  8
0
  6
BYBLOCK
 62
0
100
AcDbBlockEnd
  0
BLOCK
  5
24C
100
AcDbEntity
  8
0
100
AcDbBlockBegin
 62
2
  6
CONTINUOUS
  2
*D5
 70
65
 10
0.0
 20
0.0
  3
*D5
  1

  0
MTEXT
  5
24D
100
AcDbEntity
  8
0
100
AcDbMText
 62
2
  6
CONTINUOUS
  7
STANDARD
 71
2
 72
1
 10
194.1648770582
 20
90.1423259091
 30
0.0
 11
1.0
 21
0.0
 31
0.0
  1
113
 40
2.4
 41
6.12
  0
LINE
  5
24E
100
AcDbEntity
  8
0
100
AcDbLine
 62
2
  6
CONTINUOUS
 10
177.4963588131
 20
160.1218104855
 11
194.8648770582
 21
160.1218104855
  0
LINE
  5
24F
100
AcDbEntity
  8
0
100
AcDbLine
 62
2
  6
CONTINUOUS
 10
187.2768198449
 20
47.1218104855
 11
194.8648770582
 21
47.1218104855
  0
LINE
  5
250
100
AcDbEntity
  8
0
100
AcDbLine
 62
2
  6
CONTINUOUS
 10
194.1648770582
 20
160.1218104855
 11
194.1648770582
 21
90.8623259091
  0
LINE
  5
251
100
AcDbEntity
  8
0
100
AcDbLine
 62
2
  6
CONTINUOUS
 10
194.1648770582
 20
47.1218104855
 11
194.1648770582
 21
87.0223259091
  0
INSERT
  5
252
100
AcDbEntity
  8
0
100
AcDbBlockReference
 62
2
  6
CONTINUOUS
  2
_ARROW_FILLED
 10
194.1648770582
 20
160.1218104855
 41
2.2
 42
2.2
 43
2.2
 50
90.0
  0
INSERT
  5
253
100
AcDbEntity
  8
0
100
AcDbBlockReference
 62
2
  6
CONTINUOUS
  2
_ARROW_FILLED
 10
194.1648770582
 20
47.1218104855
 41
2.2
 42
2.2
 43
2.2
 50
270.0
  0
ENDBLK
  5
254
100
AcDbEntity
  8
0
  6
BYBLOCK
 62
0
100
AcDbBlockEnd
  0
BLOCK
  5
255
100
AcDbEntity
  8
0
100
AcDbBlockBegin
 62
2
  6
CONTINUOUS
  2
*D6
 70
65
 10
0.0
 20
0.0
  3
*D6
  1

  0
MTEXT
  5
256
100
AcDbEntity
  8
0
100
AcDbMText
 62
2
  6
CONTINUOUS
  7
STANDARD
 71
2
 72
1
 10
137.7958367376
 20
14.504755538
 30
0.0
 11
1.0
 21
0.0
 31
0.0
  1
75
 40
2.4
 41
4.08
  0
LINE
  5
257
100
AcDbEntity
  8
0
100
AcDbLine
 62
2
  6
CONTINUOUS
 10
100.2958367376
 20
28.0230431341
 11
100.2958367376
 21
12.604755538
  0
LINE
  5
258
100
AcDbEntity
  8
0
100
AcDbLine
 62
2
  6
CONTINUOUS
 10
175.2958367376
 20
34.1521320473
 11
175.2958367376
 21
12.604755538
  0
LINE
  5
259
100
AcDbEntity
  8
0
100
AcDbLine
 62
2
  6
CONTINUOUS
 10
100.2958367376
 20
13.304755538
 11
135.0358367376
 21
13.304755538
  0
LINE
  5
25A
100
AcDbEntity
  8
0
100
AcDbLine
 62
2
  6
CONTINUOUS
 10
175.2958367376
 20
13.304755538
 11
140.5558367376
 21
13.304755538
  0
INSERT
  5
25B
100
AcDbEntity
  8
0
100
AcDbBlockReference
 62
2
  6
CONTINUOUS
  2
_ARROW_FILLED
 10
100.2958367376
 20
13.304755538
 41
2.2
 42
2.2
 43
2.2
 50
180.0
  0
INSERT
  5
25C
100
AcDbEntity
  8
0
100
AcDbBlockReference
 62
2
  6
CONTINUOUS
  2
_ARROW_FILLED
 10
175.2958367376
 20
13.304755538
 41
2.2
 42
2.2
 43
2.2
  0
ENDBLK
  5
25D
100
AcDbEntity
  8
0
  6
BYBLOCK
 62
0
100
AcDbBlockEnd
  0
BLOCK
  5
25E
100
AcDbEntity
  8
0
100
AcDbBlockBegin
 62
2
  6
CONTINUOUS
  2
*D7
 70
65
 10
0.0
 20
0.0
  3
*D7
  1

  0
MTEXT
  5
25F
100
AcDbEntity
  8
0
100
AcDbMText
 62
2
  6
CONTINUOUS
  7
STANDARD
 71
2
 72
1
 10
62.7958367376
 20
14.504755538
 30
0.0
 11
1.0
 21
0.0
 31
0.0
  1
75
 40
2.4
 41
4.08
  0
LINE
  5
260
100
AcDbEntity
  8
0
100
AcDbLine
 62
2
  6
CONTINUOUS
 10
100.2958367376
 20
27.3059190945
 11
100.2958367376
 21
12.604755538
  0
LINE
  5
261
100
AcDbEntity
  8
0
100
AcDbLine
 62
2
  6
CONTINUOUS
 10
25.2958367376
 20
33.7607516961
 11
25.2958367376
 21
12.604755538
  0
LINE
  5
262
100
AcDbEntity
  8
0
100
AcDbLine
 62
2
  6
CONTINUOUS
 10
100.2958367376
 20
13.304755538
 11
65.5558367376
 21
13.304755538
  0
LINE
  5
263
100
AcDbEntity
  8
0
100
AcDbLine
 62
2
  6
CONTINUOUS
 10
25.2958367376
 20
13.304755538
 11
60.0358367376
 21
13.304755538
  0
INSERT
  5
264
100
AcDbEntity
  8
0
100
AcDbBlockReference
 62
2
  6
CONTINUOUS
  2
_ARROW_FILLED
 10
100.2958367376
 20
13.304755538
 41
2.2
 42
2.2
 43
2.2
  0
INSERT
  5
265
100
AcDbEntity
  8
0
100
AcDbBlockReference
 62
2
  6
CONTINUOUS
  2
_ARROW_FILLED
 10
25.2958367376
 20
13.304755538
 41
2.2
 42
2.2
 43
2.2
 50
180.0
  0
ENDBLK
  5
266
100
AcDbEntity
  8
0
  6
BYBLOCK
 62
0
100
AcDbBlockEnd
  0
BLOCK
  5
267
100
AcDbEntity
  8
0
100
AcDbBlockBegin
 62
2
  6
CONTINUOUS
  2
*D8
 70
65
 10
0.0
 20
0.0
  3
*D8
  1

  0
MTEXT
  5
268
100
AcDbEntity
  8
0
100
AcDbMText
 62
2
  6
CONTINUOUS
  7
STANDARD
 71
2
 72
1
 10
11.2705817783
 20
98.6354617156
 30
0.0
 11
1.0
 21
0.0
 31
0.0
  1
113
 40
2.4
 41
6.12
  0
LINE
  5
269
100
AcDbEntity
  8
0
100
AcDbLine
 62
2
  6
CONTINUOUS
 10
19.4222644114
 20
160.1218104855
 11
10.5705817783
 21
160.1218104855
  0
LINE
  5
26A
100
AcDbEntity
  8
0
100
AcDbLine
 62
2
  6
CONTINUOUS
 10
24.5958367376
 20
47.1218104855
 11
10.5705817783
 21
47.1218104855
  0
LINE
  5
26B
100
AcDbEntity
  8
0
100
AcDbLine
 62
2
  6
CONTINUOUS
 10
11.2705817783
 20
160.1218104855
 11
11.2705817783
 21
99.3554617156
  0
LINE
  5
26C
100
AcDbEntity
  8
0
100
AcDbLine
 62
2
  6
CONTINUOUS
 10
11.2705817783
 20
47.1218104855
 11
11.2705817783
 21
95.5154617156
  0
INSERT
  5
26D
100
AcDbEntity
  8
0
100
AcDbBlockReference
 62
2
  6
CONTINUOUS
  2
_ARROW_FILLED
 10
11.2705817783
 20
160.1218104855
 41
2.2
 42
2.2
 43
2.2
 50
90.0
  0
INSERT
  5
26E
100
AcDbEntity
  8
0
100
AcDbBlockReference
 62
2
  6
CONTINUOUS
  2
_ARROW_FILLED
 10
11.2705817783
 20
47.1218104855
 41
2.2
 42
2.2
 43
2.2
 50
270.0
  0
ENDBLK
  5
26F
100
AcDbEntity
  8
0
  6
BYBLOCK
 62
0
100
AcDbBlockEnd
  0
BLOCK
  5
270
100
AcDbEntity
  8
0
100
AcDbBlockBegin
 62
2
  6
CONTINUOUS
  2
*D9
 70
65
 10
0.0
 20
0.0
  3
*D9
  1

  0
MTEXT
  5
271
100
AcDbEntity
  8
0
100
AcDbMText
 62
2
  6
CONTINUOUS
  7
STANDARD
 71
2
 72
1
 10
85.2958367376
 20
275.4545626051
 30
0.0
 11
1.0
 21
0.0
 31
0.0
  1
30
 40
2.4
 41
4.08
  0
LINE
  5
272
100
AcDbEntity
  8
0
100
AcDbLine
 62
2
  6
CONTINUOUS
 10
100.2958367376
 20
269.8682498605
 11
100.2958367376
 21
274.9545626051
  0
LINE
  5
273
100
AcDbEntity
  8
0
100
AcDbLine
 62
2
  6
CONTINUOUS
 10
70.2958367376
 20
251.8218104855
 11
70.2958367376
 21
274.9545626051
  0
LINE
  5
274
100
AcDbEntity
  8
0
100
AcDbLine
 62
2
  6
CONTINUOUS
 10
100.2958367376
 20
274.2545626051
 11
88.0558367376
 21
274.2545626051
  0
LINE
  5
275
100
AcDbEntity
  8
0
100
AcDbLine
 62
2
  6
CONTINUOUS
 10
70.2958367376
 20
274.2545626051
 11
82.5358367376
 21
274.2545626051
  0
INSERT
  5
276
100
AcDbEntity
  8
0
100
AcDbBlockReference
 62
2
  6
CONTINUOUS
  2
_ARROW_FILLED
 10
100.2958367376
 20
274.2545626051
 41
2.2
 42
2.2
 43
2.2
  0
INSERT
  5
277
100
AcDbEntity
  8
0
100
AcDbBlockReference
 62
2
  6
CONTINUOUS
  2
_ARROW_FILLED
 10
70.2958367376
 20
274.2545626051
 41
2.2
 42
2.2
 43
2.2
 50
180.0
  0
ENDBLK
  5
278
100
AcDbEntity
  8
0
  6
BYBLOCK
 62
0
100
AcDbBlockEnd
  0
BLOCK
  5
279
100
AcDbEntity
  8
0
100
AcDbBlockBegin
 62
2
  6
CONTINUOUS
  2
*D10
 70
65
 10
0.0
 20
0.0
  3
*D10
  1

  0
MTEXT
  5
27A
100
AcDbEntity
  8
0
100
AcDbMText
 62
2
  6
CONTINUOUS
  7
TEXTSTYLE_2
 71
3
 72
1
 10
113.9666867806
 20
269.0304010871
 30
0.0
 11
1.0
 21
0.0
 31
0.0
  1
{\Fgdt;n}\Ftxt;12
 40
2.4
 41
7.28
  0
LINE
  5
27B
100
AcDbEntity
  8
0
100
AcDbLine
 62
2
  6
CONTINUOUS
 10
126.9287091535
 20
256.0879409542
 11
118.9671057146
 21
267.8304010871
  0
LINE
  5
27C
100
AcDbEntity
  8
0
100
AcDbLine
 62
2
  6
CONTINUOUS
 10
118.9671057146
 20
267.8304010871
 11
115.1666867806
 21
267.8304010871
  0
INSERT
  5
27D
100
AcDbEntity
  8
0
100
AcDbBlockReference
 62
2
  6
CONTINUOUS
  2
_ARROW_FILLED
 10
126.9287091535
 20
256.0879409542
 41
2.2
 42
2.2
 43
2.2
 50
304.1379909349
  0
ENDBLK
  5
27E
100
AcDbEntity
  8
0
  6
BYBLOCK
 62
0
100
AcDbBlockEnd
  0
BLOCK
  5
27F
100
AcDbEntity
  8
0
100
AcDbBlockBegin
 62
2
  6
CONTINUOUS
  2
*D11
 70
65
 10
0.0
 20
0.0
  3
*D11
  1

  0
MTEXT
  5
280
100
AcDbEntity
  8
0
100
AcDbMText
 62
2
  6
CONTINUOUS
  7
STANDARD
 71
2
 72
1
 10
115.2958367376
 20
275.4580401024
 30
0.0
 11
1.0
 21
0.0
 31
0.0
  1
30
 40
2.4
 41
4.08
  0
LINE
  5
281
100
AcDbEntity
  8
0
100
AcDbLine
 62
2
  6
CONTINUOUS
 10
100.2958367376
 20
268.2381730219
 11
100.2958367376
 21
274.9580401024
  0
LINE
  5
282
100
AcDbEntity
  8
0
100
AcDbLine
 62
2
  6
CONTINUOUS
 10
130.2958367376
 20
251.8218104855
 11
130.2958367376
 21
274.9580401024
  0
LINE
  5
283
100
AcDbEntity
  8
0
100
AcDbLine
 62
2
  6
CONTINUOUS
 10
100.2958367376
 20
274.2580401024
 11
112.5358367376
 21
274.2580401024
  0
LINE
  5
284
100
AcDbEntity
  8
0
100
AcDbLine
 62
2
  6
CONTINUOUS
 10
130.2958367376
 20
274.2580401024
 11
118.0558367376
 21
274.2580401024
  0
INSERT
  5
285
100
AcDbEntity
  8
0
100
AcDbBlockReference
 62
2
  6
CONTINUOUS
  2
_ARROW_FILLED
 10
100.2958367376
 20
274.2580401024
 41
2.2
 42
2.2
 43
2.2
 50
180.0
  0
INSERT
  5
286
100
AcDbEntity
  8
0
100
AcDbBlockReference
 62
2
  6
CONTINUOUS
  2
_ARROW_FILLED
 10
130.2958367376
 20
274.2580401024
 41
2.2
 42
2.2
 43
2.2
  0
ENDBLK
  5
287
100
AcDbEntity
  8
0
  6
BYBLOCK
 62
0
100
AcDbBlockEnd
  0
BLOCK
  5
288
100
AcDbEntity
  8
0
100
AcDbBlockBegin
 62
2
  6
CONTINUOUS
  2
*D12
 70
65
 10
0.0
 20
0.0
  3
*D12
  1

  0
MTEXT
  5
289
100
AcDbEntity
  8
0
100
AcDbMText
 62
2
  6
CONTINUOUS
  7
STANDARD
 71
2
 72
1
 10
201.7284335895
 20
195.5476049648
 30
0.0
 11
1.0
 21
0.0
 31
0.0
  1
91
 40
2.4
 41
4.08
  0
LINE
  5
28A
100
AcDbEntity
  8
0
100
AcDbLine
 62
2
  6
CONTINUOUS
 10
177.0994950604
 20
160.1218104855
 11
202.4284335895
 21
160.1218104855
  0
LINE
  5
28B
100
AcDbEntity
  8
0
100
AcDbLine
 62
2
  6
CONTINUOUS
 10
143.6813973655
 20
251.1218104855
 11
202.4284335895
 21
251.1218104855
  0
LINE
  5
28C
100
AcDbEntity
  8
0
100
AcDbLine
 62
2
  6
CONTINUOUS
 10
201.7284335895
 20
160.1218104855
 11
201.7284335895
 21
192.4276049648
  0
LINE
  5
28D
100
AcDbEntity
  8
0
100
AcDbLine
 62
2
  6
CONTINUOUS
 10
201.7284335895
 20
251.1218104855
 11
201.7284335895
 21
196.2676049648
  0
INSERT
  5
28E
100
AcDbEntity
  8
0
100
AcDbBlockReference
 62
2
  6
CONTINUOUS
  2
_ARROW_FILLED
 10
201.7284335895
 20
160.1218104855
 41
2.2
 42
2.2
 43
2.2
 50
270.0
  0
INSERT
  5
28F
100
AcDbEntity
  8
0
100
AcDbBlockReference
 62
2
  6
CONTINUOUS
  2
_ARROW_FILLED
 10
201.7284335895
 20
251.1218104855
 41
2.2
 42
2.2
 43
2.2
 50
90.0
  0
ENDBLK
  5
290
100
AcDbEntity
  8
0
  6
BYBLOCK
 62
0
100
AcDbBlockEnd
  0
BLOCK
  5
291
100
AcDbEntity
  8
0
100
AcDbBlockBegin
 62
2
  6
CONTINUOUS
  2
*D13
 70
65
 10
0.0
 20
0.0
  3
*D13
  1

  0
MTEXT
  5
292
100
AcDbEntity
  8
0
100
AcDbMText
 62
2
  6
CONTINUOUS
  7
TEXTSTYLE_2
 71
2
 72
1
 10
86.4499953702
 20
97.1904786473
 30
0.0
 11
1.0
 21
0.0
 31
0.0
  1
{\Fgdt;n}\Ftxt;38
 40
2.4
 41
7.28
  0
LINE
  5
293
100
AcDbEntity
  8
0
100
AcDbLine
 62
2
  6
CONTINUOUS
 10
93.0832203915
 20
103.8138842826
 11
88.0779043186
 21
97.9104786473
  0
LINE
  5
294
100
AcDbEntity
  8
0
100
AcDbLine
 62
2
  6
CONTINUOUS
 10
68.5084530837
 20
74.8297366883
 11
84.8220864218
 21
94.0704786473
  0
INSERT
  5
295
100
AcDbEntity
  8
0
100
AcDbBlockReference
 62
2
  6
CONTINUOUS
  2
_ARROW_FILLED
 10
93.0832203915
 20
103.8138842826
 41
2.2
 42
2.2
 43
2.2
 50
49.7064136543
  0
INSERT
  5
296
100
AcDbEntity
  8
0
100
AcDbBlockReference
 62
2
  6
CONTINUOUS
  2
_ARROW_FILLED
 10
68.5084530837
 20
74.8297366883
 41
2.2
 42
2.2
 43
2.2
 50
229.7064136543
  0
ENDBLK
  5
297
100
AcDbEntity
  8
0
  6
BYBLOCK
 62
0
100
AcDbBlockEnd
  0
BLOCK
  5
298
100
AcDbEntity
  8
0
100
AcDbBlockBegin
 62
2
  6
CONTINUOUS
  2
*D14
 70
65
 10
0.0
 20
0.0
  3
*D14
  1

  0
MTEXT
  5
299
100
AcDbEntity
  8
0
100
AcDbMText
 62
2
  6
CONTINUOUS
  7
STANDARD
 71
2
 72
1
 10
18.2813539548
 20
125.9218104855
 30
0.0
 11
1.0
 21
0.0
 31
0.0
  1
70.8
 40
2.4
 41
8.16
  0
LINE
  5
29A
100
AcDbEntity
  8
0
100
AcDbLine
 62
2
  6
CONTINUOUS
 10
19.9215878674
 20
160.1218104855
 11
17.5813539548
 21
160.1218104855
  0
LINE
  5
29B
100
AcDbEntity
  8
0
100
AcDbLine
 62
2
  6
CONTINUOUS
 10
57.4133551561
 20
89.3218104855
 11
17.5813539548
 21
89.3218104855
  0
LINE
  5
29C
100
AcDbEntity
  8
0
100
AcDbLine
 62
2
  6
CONTINUOUS
 10
18.2813539548
 20
160.1218104855
 11
18.2813539548
 21
126.6418104855
  0
LINE
  5
29D
100
AcDbEntity
  8
0
100
AcDbLine
 62
2
  6
CONTINUOUS
 10
18.2813539548
 20
89.3218104855
 11
18.2813539548
 21
122.8018104855
  0
INSERT
  5
29E
100
AcDbEntity
  8
0
100
AcDbBlockReference
 62
2
  6
CONTINUOUS
  2
_ARROW_FILLED
 10
18.2813539548
 20
160.1218104855
 41
2.2
 42
2.2
 43
2.2
 50
90.0
  0
INSERT
  5
29F
100
AcDbEntity
  8
0
100
AcDbBlockReference
 62
2
  6
CONTINUOUS
  2
_ARROW_FILLED
 10
18.2813539548
 20
89.3218104855
 41
2.2
 42
2.2
 43
2.2
 50
270.0
  0
ENDBLK
  5
2A0
100
AcDbEntity
  8
0
  6
BYBLOCK
 62
0
100
AcDbBlockEnd
  0
BLOCK
  5
2A1
100
AcDbEntity
  8
0
100
AcDbBlockBegin
 62
2
  6
CONTINUOUS
  2
*D15
 70
65
 10
0.0
 20
0.0
  3
*D15
  1

  0
MTEXT
  5
2A2
100
AcDbEntity
  8
0
100
AcDbMText
 62
2
  6
CONTINUOUS
  7
STANDARD
 71
2
 72
1
 10
90.5458367376
 20
22.1440993779
 30
0.0
 11
1.0
 21
0.0
 31
0.0
  1
19.5
 40
2.4
 41
8.16
  0
LINE
  5
2A3
100
AcDbEntity
  8
0
100
AcDbLine
 62
2
  6
CONTINUOUS
 10
100.2958367376
 20
24.6655241335
 11
100.2958367376
 21
20.2440993779
  0
LINE
  5
2A4
100
AcDbEntity
  8
0
100
AcDbLine
 62
2
  6
CONTINUOUS
 10
80.7958367376
 20
62.8093221577
 11
80.7958367376
 21
20.2440993779
  0
LINE
  5
2A5
100
AcDbEntity
  8
0
100
AcDbLine
 62
2
  6
CONTINUOUS
 10
100.2958367376
 20
20.9440993779
 11
95.3458367376
 21
20.9440993779
  0
LINE
  5
2A6
100
AcDbEntity
  8
0
100
AcDbLine
 62
2
  6
CONTINUOUS
 10
80.7958367376
 20
20.9440993779
 11
85.7458367376
 21
20.9440993779
  0
INSERT
  5
2A7
100
AcDbEntity
  8
0
100
AcDbBlockReference
 62
2
  6
CONTINUOUS
  2
_ARROW_FILLED
 10
100.2958367376
 20
20.9440993779
 41
2.2
 42
2.2
 43
2.2
  0
INSERT
  5
2A8
100
AcDbEntity
  8
0
100
AcDbBlockReference
 62
2
  6
CONTINUOUS
  2
_ARROW_FILLED
 10
80.7958367376
 20
20.9440993779
 41
2.2
 42
2.2
 43
2.2
 50
180.0
  0
ENDBLK
  5
2A9
100
AcDbEntity
  8
0
  6
BYBLOCK
 62
0
100
AcDbBlockEnd
  0
BLOCK
  5
2AA
100
AcDbEntity
  8
0
100
AcDbBlockBegin
 62
2
  6
CONTINUOUS
  2
*D16
 70
65
 10
0.0
 20
0.0
  3
*D16
  1

  0
MTEXT
  5
2AB
100
AcDbEntity
  8
0
100
AcDbMText
 62
2
  6
CONTINUOUS
  7
STANDARD
 71
2
 72
1
 10
11.4661909989
 20
188.8218104855
 30
0.0
 11
1.0
 21
0.0
 31
0.0
  1
55
 40
2.4
 41
4.08
  0
LINE
  5
2AC
100
AcDbEntity
  8
0
100
AcDbLine
 62
2
  6
CONTINUOUS
 10
17.6394802933
 20
160.1218104855
 11
10.7661909989
 21
160.1218104855
  0
LINE
  5
2AD
100
AcDbEntity
  8
0
100
AcDbLine
 62
2
  6
CONTINUOUS
 10
34.5958367376
 20
215.1218104855
 11
10.7661909989
 21
215.1218104855
  0
LINE
  5
2AE
100
AcDbEntity
  8
0
100
AcDbLine
 62
2
  6
CONTINUOUS
 10
11.4661909989
 20
160.1218104855
 11
11.4661909989
 21
185.7018104855
  0
LINE
  5
2AF
100
AcDbEntity
  8
0
100
AcDbLine
 62
2
  6
CONTINUOUS
 10
11.4661909989
 20
215.1218104855
 11
11.4661909989
 21
189.5418104855
  0
INSERT
  5
2B0
100
AcDbEntity
  8
0
100
AcDbBlockReference
 62
2
  6
CONTINUOUS
  2
_ARROW_FILLED
 10
11.4661909989
 20
160.1218104855
 41
2.2
 42
2.2
 43
2.2
 50
270.0
  0
INSERT
  5
2B1
100
AcDbEntity
  8
0
100
AcDbBlockReference
 62
2
  6
CONTINUOUS
  2
_ARROW_FILLED
 10
11.4661909989
 20
215.1218104855
 41
2.2
 42
2.2
 43
2.2
 50
90.0
  0
ENDBLK
  5
2B2
100
AcDbEntity
  8
0
  6
BYBLOCK
 62
0
100
AcDbBlockEnd
  0
BLOCK
  5
2B3
100
AcDbEntity
  8
0
100
AcDbBlockBegin
 62
2
  6
CONTINUOUS
  2
*D17
 70
65
 10
0.0
 20
0.0
  3
*D17
  1

  0
MTEXT
  5
2B4
100
AcDbEntity
  8
0
100
AcDbMText
 62
2
  6
CONTINUOUS
  7
STANDARD
 71
2
 72
1
 10
67.7958367376
 20
283.6285999268
 30
0.0
 11
1.0
 21
0.0
 31
0.0
  1
65
 40
2.4
 41
4.08
  0
LINE
  5
2B5
100
AcDbEntity
  8
0
100
AcDbLine
 62
2
  6
CONTINUOUS
 10
100.2958367376
 20
268.1170085567
 11
100.2958367376
 21
283.1285999268
  0
LINE
  5
2B6
100
AcDbEntity
  8
0
100
AcDbLine
 62
2
  6
CONTINUOUS
 10
35.2958367376
 20
231.0816627828
 11
35.2958367376
 21
283.1285999268
  0
LINE
  5
2B7
100
AcDbEntity
  8
0
100
AcDbLine
 62
2
  6
CONTINUOUS
 10
100.2958367376
 20
282.4285999268
 11
70.5558367376
 21
282.4285999268
  0
LINE
  5
2B8
100
AcDbEntity
  8
0
100
AcDbLine
 62
2
  6
CONTINUOUS
 10
35.2958367376
 20
282.4285999268
 11
65.0358367376
 21
282.4285999268
  0
INSERT
  5
2B9
100
AcDbEntity
  8
0
100
AcDbBlockReference
 62
2
  6
CONTINUOUS
  2
_ARROW_FILLED
 10
100.2958367376
 20
282.4285999268
 41
2.2
 42
2.2
 43
2.2
  0
INSERT
  5
2BA
100
AcDbEntity
  8
0
100
AcDbBlockReference
 62
2
  6
CONTINUOUS
  2
_ARROW_FILLED
 10
35.2958367376
 20
282.4285999268
 41
2.2
 42
2.2
 43
2.2
 50
180.0
  0
ENDBLK
  5
2BB
100
AcDbEntity
  8
0
  6
BYBLOCK
 62
0
100
AcDbBlockEnd
  0
BLOCK
  5
2BC
100
AcDbEntity
  8
0
100
AcDbBlockBegin
 62
2
  6
CONTINUOUS
  2
*D18
 70
65
 10
0.0
 20
0.0
  3
*D18
  1

  0
MTEXT
  5
2BD
100
AcDbEntity
  8
0
100
AcDbMText
 62
2
  6
CONTINUOUS
  7
STANDARD
 71
2
 72
1
 10
194.1648770582
 20
188.8218104855
 30
0.0
 11
1.0
 21
0.0
 31
0.0
  1
55
 40
2.4
 41
4.08
  0
LINE
  5
2BE
100
AcDbEntity
  8
0
100
AcDbLine
 62
2
  6
CONTINUOUS
 10
178.946805708
 20
160.1218104855
 11
194.8648770582
 21
160.1218104855
  0
LINE
  5
2BF
100
AcDbEntity
  8
0
100
AcDbLine
 62
2
  6
CONTINUOUS
 10
176.8969320156
 20
215.1218104855
 11
194.8648770582
 21
215.1218104855
  0
LINE
  5
2C0
100
AcDbEntity
  8
0
100
AcDbLine
 62
2
  6
CONTINUOUS
 10
194.1648770582
 20
160.1218104855
 11
194.1648770582
 21
185.7018104855
  0
LINE
  5
2C1
100
AcDbEntity
  8
0
100
AcDbLine
 62
2
  6
CONTINUOUS
 10
194.1648770582
 20
215.1218104855
 11
194.1648770582
 21
189.5418104855
  0
INSERT
  5
2C2
100
AcDbEntity
  8
0
100
AcDbBlockReference
 62
2
  6
CONTINUOUS
  2
_ARROW_FILLED
 10
194.1648770582
 20
160.1218104855
 41
2.2
 42
2.2
 43
2.2
 50
270.0
  0
INSERT
  5
2C3
100
AcDbEntity
  8
0
100
AcDbBlockReference
 62
2
  6
CONTINUOUS
  2
_ARROW_FILLED
 10
194.1648770582
 20
215.1218104855
 41
2.2
 42
2.2
 43
2.2
 50
90.0
  0
ENDBLK
  5
2C4
100
AcDbEntity
  8
0
  6
BYBLOCK
 62
0
100
AcDbBlockEnd
  0
BLOCK
  5
2C5
100
AcDbEntity
  8
0
100
AcDbBlockBegin
 62
2
  6
CONTINUOUS
  2
*D19
 70
65
 10
0.0
 20
0.0
  3
*D19
  1

  0
MTEXT
  5
2C6
100
AcDbEntity
  8
0
100
AcDbMText
 62
2
  6
CONTINUOUS
  7
STANDARD
 71
2
 72
1
 10
132.7958367376
 20
283.6747854372
 30
0.0
 11
1.0
 21
0.0
 31
0.0
  1
65
 40
2.4
 41
4.08
  0
LINE
  5
2C7
100
AcDbEntity
  8
0
100
AcDbLine
 62
2
  6
CONTINUOUS
 10
100.2958367376
 20
267.7529580627
 11
100.2958367376
 21
283.1747854372
  0
LINE
  5
2C8
100
AcDbEntity
  8
0
100
AcDbLine
 62
2
  6
CONTINUOUS
 10
165.2958367376
 20
230.0384136061
 11
165.2958367376
 21
283.1747854372
  0
LINE
  5
2C9
100
AcDbEntity
  8
0
100
AcDbLine
 62
2
  6
CONTINUOUS
 10
100.2958367376
 20
282.4747854372
 11
130.0358367376
 21
282.4747854372
  0
LINE
  5
2CA
100
AcDbEntity
  8
0
100
AcDbLine
 62
2
  6
CONTINUOUS
 10
165.2958367376
 20
282.4747854372
 11
135.5558367376
 21
282.4747854372
  0
INSERT
  5
2CB
100
AcDbEntity
  8
0
100
AcDbBlockReference
 62
2
  6
CONTINUOUS
  2
_ARROW_FILLED
 10
100.2958367376
 20
282.4747854372
 41
2.2
 42
2.2
 43
2.2
 50
180.0
  0
INSERT
  5
2CC
100
AcDbEntity
  8
0
100
AcDbBlockReference
 62
2
  6
CONTINUOUS
  2
_ARROW_FILLED
 10
165.2958367376
 20
282.4747854372
 41
2.2
 42
2.2
 43
2.2
  0
ENDBLK
  5
2CD
100
AcDbEntity
  8
0
  6
BYBLOCK
 62
0
100
AcDbBlockEnd
  0
BLOCK
  5
2CE
100
AcDbEntity
  8
0
100
AcDbBlockBegin
 62
2
  6
CONTINUOUS
  2
*D20
 70
65
 10
0.0
 20
0.0
  3
*D20
  1

  0
MTEXT
  5
2CF
100
AcDbEntity
  8
0
100
AcDbMText
 62
2
  6
CONTINUOUS
  7
STANDARD
 71
2
 72
1
 10
113.7958367376
 20
21.7344179968
 30
0.0
 11
1.0
 21
0.0
 31
0.0
  1
27
 40
2.4
 41
4.08
  0
LINE
  5
2D0
100
AcDbEntity
  8
0
100
AcDbLine
 62
2
  6
CONTINUOUS
 10
100.2958367376
 20
31.1050409387
 11
100.2958367376
 21
19.8344179968
  0
LINE
  5
2D1
100
AcDbEntity
  8
0
100
AcDbLine
 62
2
  6
CONTINUOUS
 10
127.2958367376
 20
31.5136468662
 11
127.2958367376
 21
19.8344179968
  0
LINE
  5
2D2
100
AcDbEntity
  8
0
100
AcDbLine
 62
2
  6
CONTINUOUS
 10
100.2958367376
 20
20.5344179968
 11
111.0358367376
 21
20.5344179968
  0
LINE
  5
2D3
100
AcDbEntity
  8
0
100
AcDbLine
 62
2
  6
CONTINUOUS
 10
127.2958367376
 20
20.5344179968
 11
116.5558367376
 21
20.5344179968
  0
INSERT
  5
2D4
100
AcDbEntity
  8
0
100
AcDbBlockReference
 62
2
  6
CONTINUOUS
  2
_ARROW_FILLED
 10
100.2958367376
 20
20.5344179968
 41
2.2
 42
2.2
 43
2.2
 50
180.0
  0
INSERT
  5
2D5
100
AcDbEntity
  8
0
100
AcDbBlockReference
 62
2
  6
CONTINUOUS
  2
_ARROW_FILLED
 10
127.2958367376
 20
20.5344179968
 41
2.2
 42
2.2
 43
2.2
  0
ENDBLK
  5
2D6
100
AcDbEntity
  8
0
  6
BYBLOCK
 62
0
100
AcDbBlockEnd
  0
BLOCK
  5
2D7
100
AcDbEntity
  8
0
100
AcDbBlockBegin
 62
2
  6
CONTINUOUS
  2
*D21
 70
65
 10
0.0
 20
0.0
  3
*D21
  1

  0
MTEXT
  5
2D8
100
AcDbEntity
  8
0
100
AcDbMText
 62
2
  6
CONTINUOUS
  7
STANDARD
 71
2
 72
1
 10
201.7284335895
 20
103.5718104855
 30
0.0
 11
1.0
 21
0.0
 31
0.0
  1
115.5
 40
2.4
 41
10.2
  0
LINE
  5
2D9
100
AcDbEntity
  8
0
100
AcDbLine
 62
2
  6
CONTINUOUS
 10
182.6981778266
 20
160.1218104855
 11
202.4284335895
 21
160.1218104855
  0
LINE
  5
2DA
100
AcDbEntity
  8
0
100
AcDbLine
 62
2
  6
CONTINUOUS
 10
138.5940536539
 20
44.6218104855
 11
202.4284335895
 21
44.6218104855
  0
LINE
  5
2DB
100
AcDbEntity
  8
0
100
AcDbLine
 62
2
  6
CONTINUOUS
 10
201.7284335895
 20
160.1218104855
 11
201.7284335895
 21
104.2918104855
  0
LINE
  5
2DC
100
AcDbEntity
  8
0
100
AcDbLine
 62
2
  6
CONTINUOUS
 10
201.7284335895
 20
44.6218104855
 11
201.7284335895
 21
100.4518104855
  0
INSERT
  5
2DD
100
AcDbEntity
  8
0
100
AcDbBlockReference
 62
2
  6
CONTINUOUS
  2
_ARROW_FILLED
 10
201.7284335895
 20
160.1218104855
 41
2.2
 42
2.2
 43
2.2
 50
90.0
  0
INSERT
  5
2DE
100
AcDbEntity
  8
0
100
AcDbBlockReference
 62
2
  6
CONTINUOUS
  2
_ARROW_FILLED
 10
201.7284335895
 20
44.6218104855
 41
2.2
 42
2.2
 43
2.2
 50
270.0
  0
ENDBLK
  5
2DF
100
AcDbEntity
  8
0
  6
BYBLOCK
 62
0
100
AcDbBlockEnd
  0
BLOCK
  5
2E0
100
AcDbEntity
  8
0
100
AcDbBlockBegin
 62
2
  6
CONTINUOUS
  2
*D22
 70
65
 10
0.0
 20
0.0
  3
*D22
  1

  0
MTEXT
  5
2E1
100
AcDbEntity
  8
0
100
AcDbMText
 62
2
  6
CONTINUOUS
  7
STANDARD
 71
1
 72
1
 10
126.8255014096
 20
115.9779711355
 30
0.0
 11
1.0
 21
0.0
 31
0.0
  1
R3.8
 40
2.4
 41
8.16
  0
LINE
  5
2E2
100
AcDbEntity
  8
0
100
AcDbLine
 62
2
  6
CONTINUOUS
 10
118.1942637311
 20
117.9827973759
 11
123.3255014096
 21
114.7779711355
  0
LINE
  5
2E3
100
AcDbEntity
  8
0
100
AcDbLine
 62
2
  6
CONTINUOUS
 10
123.3255014096
 20
114.7779711355
 11
125.6255014096
 21
114.7779711355
  0
INSERT
  5
2E4
100
AcDbEntity
  8
0
100
AcDbBlockReference
 62
2
  6
CONTINUOUS
  2
_ARROW_FILLED
 10
118.1942637311
 20
117.9827973759
 41
2.2
 42
2.2
 43
2.2
 50
148.0122635575
  0
ENDBLK
  5
2E5
100
AcDbEntity
  8
0
  6
BYBLOCK
 62
0
100
AcDbBlockEnd
  0
BLOCK
  5
2E6
100
AcDbEntity
  8
0
100
AcDbBlockBegin
 62
2
  6
CONTINUOUS
  2
*D23
 70
65
 10
0.0
 20
0.0
  3
*D23
  1

  0
MTEXT
  5
2E7
100
AcDbEntity
  8
0
100
AcDbMText
 62
2
  6
CONTINUOUS
  7
STANDARD
 71
2
 72
1
 10
116.7381896508
 20
100.5902835362
 30
0.0
 11
1.0
 21
0.0
 31
0.0
  1
20\Fgdt;{\Fgdt;~}
 40
2.4
 41
5.68
  0
LINE
  5
2E8
100
AcDbEntity
  8
0
100
AcDbLine
 62
2
  6
CONTINUOUS
 10
101.1266996301
 20
158.0333903795
 11
122.1186305401
 21
100.3585342133
  0
LINE
  5
2E9
100
AcDbEntity
  8
0
100
AcDbLine
 62
2
  6
CONTINUOUS
 10
100.2958367376
 20
98.0710064196
 11
100.2958367376
 21
96.5105868715
  0
ARC
  5
2EA
100
AcDbEntity
  8
0
100
AcDbCircle
 62
2
  6
CONTINUOUS
 10
100.2958367376
 20
160.3161674153
 40
63.1055805438
100
AcDbArc
 50
288.4795685051
 51
290.0
  0
ARC
  5
2EB
100
AcDbEntity
  8
0
100
AcDbCircle
 62
2
  6
CONTINUOUS
 10
100.2958367376
 20
160.3161674153
 40
63.1055805438
100
AcDbArc
 50
270.0
 51
281.7791412787
  0
SOLID
  5
2EC
100
AcDbEntity
  8
0
100
AcDbTrace
 62
2
  6
CONTINUOUS
 10
119.9293271191
 20
99.9218184143
 11
121.8792164398
 21
101.0163190478
 12
119.6688558126
 22
100.6782274958
 13
119.6688558126
 23
100.6782274958
  0
SOLID
  5
2ED
100
AcDbEntity
  8
0
100
AcDbTrace
 62
2
  6
CONTINUOUS
 10
102.4885304294
 20
97.6488725933
 11
100.2958367376
 21
97.2105868715
 12
102.5024746072
 22
96.8489941276
 13
102.5024746072
 23
96.8489941276
  0
ENDBLK
  5
2EE
100
AcDbEntity
  8
0
  6
BYBLOCK
 62
0
100
AcDbBlockEnd
  0
BLOCK
  5
2EF
100
AcDbEntity
  8
0
100
AcDbBlockBegin
 62
2
  6
CONTINUOUS
  2
*D24
 70
65
 10
0.0
 20
0.0
  3
*D24
  1

  0
MTEXT
  5
2F0
100
AcDbEntity
  8
0
100
AcDbMText
 62
2
  6
CONTINUOUS
  7
STANDARD
 71
2
 72
1
 10
42.6430854059
 20
139.1153648777
 30
0.0
 11
1.0
 21
0.0
 31
0.0
  1
73.436 REF
 40
2.4
 41
20.4
  0
LINE
  5
2F1
100
AcDbEntity
  8
0
100
AcDbLine
 62
2
  6
CONTINUOUS
 10
99.6209661256
 20
160.3076858659
 11
51.7182147939
 21
173.5012402581
  0
LINE
  5
2F2
100
AcDbEntity
  8
0
100
AcDbLine
 62
2
  6
CONTINUOUS
 10
80.1209661256
 20
89.5076858659
 11
32.2182147939
 21
102.7012402581
  0
LINE
  5
2F3
100
AcDbEntity
  8
0
100
AcDbLine
 62
2
  6
CONTINUOUS
 10
52.3930854059
 20
173.3153648777
 11
43.1718989652
 21
139.8353648777
  0
LINE
  5
2F4
100
AcDbEntity
  8
0
100
AcDbLine
 62
2
  6
CONTINUOUS
 10
32.8930854059
 20
102.5153648777
 11
42.1142718466
 21
135.9953648777
  0
INSERT
  5
2F5
100
AcDbEntity
  8
0
100
AcDbBlockReference
 62
2
  6
CONTINUOUS
  2
_ARROW_FILLED
 10
52.3930854059
 20
173.3153648777
 41
2.2
 42
2.2
 43
2.2
 50
74.6011802523
  0
INSERT
  5
2F6
100
AcDbEntity
  8
0
100
AcDbBlockReference
 62
2
  6
CONTINUOUS
  2
_ARROW_FILLED
 10
32.8930854059
 20
102.5153648777
 41
2.2
 42
2.2
 43
2.2
 50
254.6011802523
  0
ENDBLK
  5
2F7
100
AcDbEntity
  8
0
  6
BYBLOCK
 62
0
100
AcDbBlockEnd
  0
ENDSEC
  0
SECTION
  2
ENTITIES
  0
DIMENSION
  5
2F8
100
AcDbEntity
  8
0
100
AcDbDimension
 62
2
  6
CONTINUOUS
  2
*D0
 10
144.0001926119
 20
141.4997244796
 11
157.3317069967
 21
129.5720971872
 70
163
  1
<>
  3
DIMSTYLE_1
100
AcDbDiametricDimension
 15
142.8431772982
 25
148.2005688714
  0
DIMENSION
  5
2F9
100
AcDbEntity
  8
0
100
AcDbDimension
 62
2
  6
CONTINUOUS
  2
*D1
 10
154.6868749023
 20
140.8609336921
 11
156.4731846466
 21
150.4687766387
 70
162
  3
DIMSTYLE_2
100
AcDb2LineAngularDimension
 13
157.9964988437
 23
160.1218104855
 14
150.2212339503
 24
160.1218104855
 15
149.9111992356
 25
142.5520891421
 16
156.4731846466
 26
150.4687766387
  0
DIMENSION
  5
2FA
100
AcDbEntity
  8
0
100
AcDbDimension
 62
2
  6
CONTINUOUS
  2
*D2
 10
125.6147931827
 20
198.2270981045
 11
111.5960905336
 21
177.1288076735
 70
163
  1
<>
  3
DIMSTYLE_1
100
AcDbDiametricDimension
 15
74.9768802925
 25
122.0165228664
  0
DIMENSION
  5
2FB
100
AcDbEntity
  8
0
100
AcDbDimension
 62
2
  6
CONTINUOUS
  2
*D3
 10
132.6000060258
 20
217.219236402
 11
161.0881135021
 21
182.8511113987
 70
162
  3
DIMSTYLE_2
100
AcDb2LineAngularDimension
 13
162.1353845852
 23
138.2232780757
 14
152.609599327
 24
141.5965355536
 15
126.085605444
 25
205.7050723544
 16
161.0881135021
 26
182.8511113987
  0
DIMENSION
  5
2FC
100
AcDbEntity
  8
0
100
AcDbDimension
 62
2
  6
CONTINUOUS
  2
*D4
 10
172.1314322373
 20
42.0241105965
 11
155.2857359024
 21
27.7513670585
 70
163
  1
<>
  3
DIMSTYLE_1
100
AcDbDiametricDimension
 15
178.4602412379
 25
52.2195103745
  0
DIMENSION
  5
2FD
100
AcDbEntity
  8
0
100
AcDbDimension
 62
2
  6
CONTINUOUS
  2
*D5
 10
194.1648770582
 20
47.1218104855
 11
194.1648770582
 21
88.9423259091
 70
160
  3
DIMSTYLE_3
100
AcDbAlignedDimension
 13
176.7963588131
 23
160.1218104855
 14
186.5768198449
 24
47.1218104855
 50
270.0
100
AcDbRotatedDimension
  0
DIMENSION
  5
2FE
100
AcDbEntity
  8
0
100
AcDbDimension
 62
2
  6
CONTINUOUS
  2
*D6
 10
175.2958367376
 20
13.304755538
 11
137.7958367376
 21
13.304755538
 70
160
  3
DIMSTYLE_3
100
AcDbAlignedDimension
 13
100.2958367376
 23
28.7230431341
 14
175.2958367376
 24
34.8521320473
100
AcDbRotatedDimension
  0
DIMENSION
  5
2FF
100
AcDbEntity
  8
0
100
AcDbDimension
 62
2
  6
CONTINUOUS
  2
*D7
 10
25.2958367376
 20
13.304755538
 11
62.7958367376
 21
13.304755538
 70
160
  3
DIMSTYLE_3
100
AcDbAlignedDimension
 13
100.2958367376
 23
28.0059190945
 14
25.2958367376
 24
34.4607516961
 50
180.0
100
AcDbRotatedDimension
  0
DIMENSION
  5
300
100
AcDbEntity
  8
0
100
AcDbDimension
 62
2
  6
CONTINUOUS
  2
*D8
 10
11.2705817783
 20
47.1218104855
 11
11.2705817783
 21
97.4354617156
 70
160
  3
DIMSTYLE_3
100
AcDbAlignedDimension
 13
20.1222644114
 23
160.1218104855
 14
25.2958367376
 24
47.1218104855
 50
270.0
100
AcDbRotatedDimension
  0
DIMENSION
  5
301
100
AcDbEntity
  8
0
100
AcDbDimension
 62
2
  6
CONTINUOUS
  2
*D9
 10
70.2958367376
 20
274.2545626051
 11
85.2958367376
 21
274.2545626051
 70
160
  3
DIMSTYLE_3
100
AcDbAlignedDimension
 13
100.2958367376
 23
269.1682498605
 14
70.2958367376
 24
251.1218104855
 50
180.0
100
AcDbRotatedDimension
  0
DIMENSION
  5
302
100
AcDbEntity
  8
0
100
AcDbDimension
 62
2
  6
CONTINUOUS
  2
*D10
 10
126.9287091535
 20
256.0879409542
 11
110.3266867806
 21
267.8304010871
 70
163
  1
<>
  3
DIMSTYLE_1
100
AcDbDiametricDimension
 15
133.6629643216
 25
246.1556800167
  0
DIMENSION
  5
303
100
AcDbEntity
  8
0
100
AcDbDimension
 62
2
  6
CONTINUOUS
  2
*D11
 10
130.2958367376
 20
274.2580401024
 11
115.2958367376
 21
274.2580401024
 70
160
  3
DIMSTYLE_3
100
AcDbAlignedDimension
 13
100.2958367376
 23
267.5381730219
 14
130.2958367376
 24
251.1218104855
100
AcDbRotatedDimension
  0
DIMENSION
  5
304
100
AcDbEntity
  8
0
100
AcDbDimension
 62
2
  6
CONTINUOUS
  2
*D12
 10
201.7284335895
 20
251.1218104855
 11
201.7284335895
 21
194.3476049648
 70
160
  3
DIMSTYLE_3
100
AcDbAlignedDimension
 13
176.3994950604
 23
160.1218104855
 14
142.9813973655
 24
251.1218104855
 50
90.0
100
AcDbRotatedDimension
  0
DIMENSION
  5
305
100
AcDbEntity
  8
0
100
AcDbDimension
 62
2
  6
CONTINUOUS
  2
*D13
 10
93.0832203915
 20
103.8138842826
 11
86.4499953702
 21
95.9904786473
 70
163
  1
<>
  3
DIMSTYLE_1
100
AcDbDiametricDimension
 15
68.5084530837
 25
74.8297366883
  0
DIMENSION
  5
306
100
AcDbEntity
  8
0
100
AcDbDimension
 62
2
  6
CONTINUOUS
  2
*D14
 10
18.2813539548
 20
89.3218104855
 11
18.2813539548
 21
124.7218104855
 70
160
  3
DIMSTYLE_3
100
AcDbAlignedDimension
 13
20.6215878674
 23
160.1218104855
 14
58.1133551561
 24
89.3218104855
 50
270.0
100
AcDbRotatedDimension
  0
DIMENSION
  5
307
100
AcDbEntity
  8
0
100
AcDbDimension
 62
2
  6
CONTINUOUS
  2
*D15
 10
80.7958367376
 20
20.9440993779
 11
90.5458367376
 21
20.9440993779
 70
160
  3
DIMSTYLE_3
100
AcDbAlignedDimension
 13
100.2958367376
 23
25.3655241335
 14
80.7958367376
 24
63.5093221577
 50
180.0
100
AcDbRotatedDimension
  0
DIMENSION
  5
308
100
AcDbEntity
  8
0
100
AcDbDimension
 62
2
  6
CONTINUOUS
  2
*D16
 10
11.4661909989
 20
215.1218104855
 11
11.4661909989
 21
187.6218104855
 70
160
  3
DIMSTYLE_3
100
AcDbAlignedDimension
 13
18.3394802933
 23
160.1218104855
 14
35.2958367376
 24
215.1218104855
 50
90.0
100
AcDbRotatedDimension
  0
DIMENSION
  5
309
100
AcDbEntity
  8
0
100
AcDbDimension
 62
2
  6
CONTINUOUS
  2
*D17
 10
35.2958367376
 20
282.4285999268
 11
67.7958367376
 21
282.4285999268
 70
160
  3
DIMSTYLE_3
100
AcDbAlignedDimension
 13
100.2958367376
 23
267.4170085567
 14
35.2958367376
 24
230.3816627828
 50
180.0
100
AcDbRotatedDimension
  0
DIMENSION
  5
30A
100
AcDbEntity
  8
0
100
AcDbDimension
 62
2
  6
CONTINUOUS
  2
*D18
 10
194.1648770582
 20
215.1218104855
 11
194.1648770582
 21
187.6218104855
 70
160
  3
DIMSTYLE_3
100
AcDbAlignedDimension
 13
178.246805708
 23
160.1218104855
 14
176.1969320156
 24
215.1218104855
 50
90.0
100
AcDbRotatedDimension
  0
DIMENSION
  5
30B
100
AcDbEntity
  8
0
100
AcDbDimension
 62
2
  6
CONTINUOUS
  2
*D19
 10
165.2958367376
 20
282.4747854372
 11
132.7958367376
 21
282.4747854372
 70
160
  3
DIMSTYLE_3
100
AcDbAlignedDimension
 13
100.2958367376
 23
267.0529580627
 14
165.2958367376
 24
229.3384136061
100
AcDbRotatedDimension
  0
DIMENSION
  5
30C
100
AcDbEntity
  8
0
100
AcDbDimension
 62
2
  6
CONTINUOUS
  2
*D20
 10
127.2958367376
 20
20.5344179968
 11
113.7958367376
 21
20.5344179968
 70
160
  3
DIMSTYLE_3
100
AcDbAlignedDimension
 13
100.2958367376
 23
31.8050409387
 14
127.2958367376
 24
32.2136468662
100
AcDbRotatedDimension
  0
DIMENSION
  5
30D
100
AcDbEntity
  8
0
100
AcDbDimension
 62
2
  6
CONTINUOUS
  2
*D21
 10
201.7284335895
 20
44.6218104855
 11
201.7284335895
 21
102.3718104855
 70
160
  3
DIMSTYLE_3
100
AcDbAlignedDimension
 13
181.9981778266
 23
160.1218104855
 14
137.8940536539
 24
44.6218104855
 50
270.0
100
AcDbRotatedDimension
  0
DIMENSION
  5
30E
100
AcDbEntity
  8
0
100
AcDbDimension
 62
2
  6
CONTINUOUS
  2
*D22
 10
114.9712500297
 20
119.995800774
 11
130.9055014096
 21
114.7779711355
 70
164
  1
<>
  3
DIMSTYLE_4
100
AcDbRadialDimension
 15
118.1942637311
 25
117.9827973759
  0
DIMENSION
  5
30F
100
AcDbEntity
  8
0
100
AcDbDimension
 62
2
  6
CONTINUOUS
  2
*D23
 10
100.2958367376
 20
96.5105868715
 11
116.7381896508
 21
99.3902835362
 70
162
  3
DIMSTYLE_5
100
AcDb2LineAngularDimension
 13
122.1186305401
 23
100.3585342133
 14
101.1266996301
 24
158.0333903795
 15
100.2958367376
 25
98.0710064196
 16
111.2540057996
 26
98.1693024374
  0
DIMENSION
  5
310
100
AcDbEntity
  8
0
100
AcDbDimension
 62
2
  6
CONTINUOUS
  2
*D24
 10
32.8930854059
 20
102.5153648777
 11
42.6430854059
 21
137.9153648777
 70
160
  1
<> REF
  3
DIMSTYLE_3
100
AcDbAlignedDimension
 13
100.2958367376
 23
160.1218104855
 14
80.7958367376
 24
89.3218104855
 50
254.6011802523
100
AcDbRotatedDimension
  0
LINE
  5
311
100
AcDbEntity
  8
AXIS
100
AcDbLine
 62
2
  6
CENTER
 10
127.2958367376
 20
44.6218104855
 11
117.2958367376
 21
44.6218104855
  0
LINE
  5
312
100
AcDbEntity
  8
AXIS
100
AcDbLine
 62
2
  6
CENTER
 10
127.2958367376
 20
44.6218104855
 11
137.2958367376
 21
44.6218104855
  0
LINE
  5
313
100
AcDbEntity
  8
AXIS
100
AcDbLine
 62
2
  6
CENTER
 10
175.2958367376
 20
47.1218104855
 11
165.2958367376
 21
47.1218104855
  0
LINE
  5
314
100
AcDbEntity
  8
AXIS
100
AcDbLine
 62
2
  6
CENTER
 10
25.2958367376
 20
47.1218104855
 11
15.2958367376
 21
47.1218104855
  0
LINE
  5
315
100
AcDbEntity
  8
AXIS
100
AcDbLine
 62
2
  6
CENTER
 10
25.2958367376
 20
47.1218104855
 11
35.2958367376
 21
47.1218104855
  0
LINE
  5
316
100
AcDbEntity
  8
AXIS
100
AcDbLine
 62
2
  6
CENTER
 10
175.2958367376
 20
47.1218104855
 11
185.2958367376
 21
47.1218104855
  0
LINE
  5
317
100
AcDbEntity
  8
0
100
AcDbLine
 62
7
  6
CONTINUOUS
 10
41.8551266275
 20
229.2462553625
 11
57.8765981601
 21
257.100691297
  0
LINE
  5
318
100
AcDbEntity
  8
0
100
AcDbLine
 62
7
  6
CONTINUOUS
 10
24.8425504909
 20
181.7796444266
 11
24.8425504909
 21
223.9913275519
  0
LINE
  5
319
100
AcDbEntity
  8
0
100
AcDbLine
 62
7
  6
CONTINUOUS
 10
25.0964839256
 20
81.0004719855
 11
25.0964839256
 21
162.6382088378
  0
LINE
  5
31A
100
AcDbEntity
  8
AXIS
100
AcDbLine
 62
2
  6
CENTER
 10
25.2958367376
 20
47.1218104855
 11
25.2958367376
 21
37.1218104855
  0
LINE
  5
31B
100
AcDbEntity
  8
AXIS
100
AcDbLine
 62
2
  6
CENTER
 10
25.2958367376
 20
47.1218104855
 11
25.2958367376
 21
57.1218104855
  0
LINE
  5
31C
100
AcDbEntity
  8
AXIS
100
AcDbLine
 62
2
  6
CENTER
 10
35.2958367376
 20
215.1218104855
 11
35.2958367376
 21
205.1218104855
  0
LINE
  5
31D
100
AcDbEntity
  8
AXIS
100
AcDbLine
 62
2
  6
CENTER
 10
35.2958367376
 20
215.1218104855
 11
35.2958367376
 21
225.1218104855
  0
LINE
  5
31E
100
AcDbEntity
  8
AXIS
100
AcDbLine
 62
2
  6
CENTER
 10
80.7958367376
 20
89.3218104855
 11
57.7958367376
 21
89.3218104855
  0
LINE
  5
31F
100
AcDbEntity
  8
AXIS
100
AcDbLine
 62
2
  6
CENTER
 10
80.7958367376
 20
89.3218104855
 11
103.7958367376
 21
89.3218104855
  0
LINE
  5
320
100
AcDbEntity
  8
AXIS
100
AcDbLine
 62
2
  6
CENTER
 10
70.2958367376
 20
251.1218104855
 11
70.2958367376
 21
243.2001356972
  0
LINE
  5
321
100
AcDbEntity
  8
AXIS
100
AcDbLine
 62
2
  6
CENTER
 10
70.2958367376
 20
251.1218104855
 11
70.2958367376
 21
259.0434852737
  0
LINE
  5
322
100
AcDbEntity
  8
AXIS
100
AcDbLine
 62
2
  6
CENTER
 10
80.7958367376
 20
89.3218104855
 11
80.7958367376
 21
66.3218104855
  0
LINE
  5
323
100
AcDbEntity
  8
AXIS
100
AcDbLine
 62
2
  6
CENTER
 10
80.7958367376
 20
89.3218104855
 11
80.7958367376
 21
112.3218104855
  0
LINE
  5
324
100
AcDbEntity
  8
AXIS
100
AcDbLine
 62
2
  6
CENTER
 10
65.5072638114
 20
130.4095622744
 11
59.8802596659
 21
125.6036467167
  0
LINE
  5
325
100
AcDbEntity
  8
AXIS
100
AcDbLine
 62
2
  6
CENTER
 10
65.5072638114
 20
130.4095622744
 11
71.1342679568
 21
135.215477832
  0
LINE
  5
326
100
AcDbEntity
  8
AXIS
100
AcDbLine
 62
2
  6
CENTER
 10
100.2958367376
 20
160.1218104855
 11
100.2958367376
 21
32.3133532328
  0
LINE
  5
327
100
AcDbEntity
  8
AXIS
100
AcDbLine
 62
2
  6
CENTER
 10
100.2958367376
 20
160.1218104855
 11
100.2958367376
 21
270.4697527938
  0
LINE
  5
328
100
AcDbEntity
  8
AXIS
100
AcDbLine
 62
2
  6
CENTER
 10
122.8242146123
 20
199.9405835747
 11
119.1802802675
 21
193.4999514248
  0
LINE
  5
329
100
AcDbEntity
  8
AXIS
100
AcDbLine
 62
2
  6
CENTER
 10
122.8242146123
 20
199.9405835747
 11
126.4681489571
 21
206.3812157247
  0
LINE
  5
32A
100
AcDbEntity
  8
0
100
AcDbLine
 62
7
  6
CONTINUOUS
 10
110.709050428
 20
120.5956692799
 11
111.4033482544
 21
118.6881016794
  0
LINE
  5
32B
100
AcDbEntity
  8
AXIS
100
AcDbLine
 62
2
  6
CENTER
 10
143.421684955
 20
144.8501466755
 11
136.446137921
 21
147.3203174338
  0
LINE
  5
32C
100
AcDbEntity
  8
AXIS
100
AcDbLine
 62
2
  6
CENTER
 10
143.421684955
 20
144.8501466755
 11
150.3972319891
 21
142.3799759172
  0
LINE
  5
32D
100
AcDbEntity
  8
AXIS
100
AcDbLine
 62
2
  6
CENTER
 10
64.9940120476
 20
189.2223890632
 11
70.7040339647
 21
184.5154102331
  0
LINE
  5
32E
100
AcDbEntity
  8
AXIS
100
AcDbLine
 62
2
  6
CENTER
 10
64.9940120476
 20
189.2223890632
 11
59.2839901305
 21
193.9293678932
  0
LINE
  5
32F
100
AcDbEntity
  8
0
100
AcDbLine
 62
7
  6
CONTINUOUS
 10
118.539151805
 20
121.3034998685
 11
117.84246983
 21
123.2047883266
  0
LINE
  5
330
100
AcDbEntity
  8
AXIS
100
AcDbLine
 62
2
  6
CENTER
 10
100.2958367376
 20
160.1218104855
 11
15.2205492943
 21
160.1218104855
  0
LINE
  5
331
100
AcDbEntity
  8
AXIS
100
AcDbLine
 62
2
  6
CENTER
 10
100.2958367376
 20
160.1218104855
 11
179.5322946291
 21
160.1218104855
  0
LINE
  5
332
100
AcDbEntity
  8
AXIS
100
AcDbLine
 62
2
  6
CENTER
 10
127.2958367376
 20
44.6218104855
 11
127.2958367376
 21
34.6218104855
  0
LINE
  5
333
100
AcDbEntity
  8
AXIS
100
AcDbLine
 62
2
  6
CENTER
 10
127.2958367376
 20
44.6218104855
 11
127.2958367376
 21
54.6218104855
  0
LINE
  5
334
100
AcDbEntity
  8
AXIS
100
AcDbLine
 62
2
  6
CENTER
 10
130.2958367376
 20
251.1218104855
 11
130.2958367376
 21
241.1218104855
  0
LINE
  5
335
100
AcDbEntity
  8
AXIS
100
AcDbLine
 62
2
  6
CENTER
 10
130.2958367376
 20
251.1218104855
 11
130.2958367376
 21
261.1218104855
  0
LINE
  5
336
100
AcDbEntity
  8
AXIS
100
AcDbLine
 62
2
  6
CENTER
 10
165.2958367376
 20
215.1218104855
 11
165.2958367376
 21
205.1218104855
  0
LINE
  5
337
100
AcDbEntity
  8
AXIS
100
AcDbLine
 62
2
  6
CENTER
 10
165.2958367376
 20
215.1218104855
 11
165.2958367376
 21
225.1218104855
  0
LINE
  5
338
100
AcDbEntity
  8
AXIS
100
AcDbLine
 62
2
  6
CENTER
 10
165.2958367376
 20
215.1218104855
 11
155.2958367376
 21
215.1218104855
  0
LINE
  5
339
100
AcDbEntity
  8
AXIS
100
AcDbLine
 62
2
  6
CENTER
 10
35.2958367376
 20
215.1218104855
 11
25.2958367376
 21
215.1218104855
  0
LINE
  5
33A
100
AcDbEntity
  8
AXIS
100
AcDbLine
 62
2
  6
CENTER
 10
35.2958367376
 20
215.1218104855
 11
45.2958367376
 21
215.1218104855
  0
LINE
  5
33B
100
AcDbEntity
  8
AXIS
100
AcDbLine
 62
2
  6
CENTER
 10
165.2958367376
 20
215.1218104855
 11
175.2958367376
 21
215.1218104855
  0
LINE
  5
33C
100
AcDbEntity
  8
0
100
AcDbLine
 62
7
  6
CONTINUOUS
 10
175.6199384004
 20
84.3106664169
 11
175.6589959539
 21
76.6542184018
  0
LINE
  5
33D
100
AcDbEntity
  8
AXIS
100
AcDbLine
 62
2
  6
CENTER
 10
175.2958367376
 20
47.1218104855
 11
175.2958367376
 21
35.9604306203
  0
LINE
  5
33E
100
AcDbEntity
  8
AXIS
100
AcDbLine
 62
2
  6
CENTER
 10
175.2958367376
 20
47.1218104855
 11
175.2958367376
 21
57.1218104855
  0
LINE
  5
33F
100
AcDbEntity
  8
0
100
AcDbLine
 62
7
  6
CONTINUOUS
 10
175.4810751509
 20
203.3580761257
 11
175.4810751509
 21
104.6254129801
  0
LINE
  5
340
100
AcDbEntity
  8
0
100
AcDbLine
 62
7
  6
CONTINUOUS
 10
179.806410769
 20
223.9655957165
 11
179.806410769
 21
211.3250610345
  0
LINE
  5
341
100
AcDbEntity
  8
0
100
AcDbLine
 62
7
  6
CONTINUOUS
 10
161.1895042446
 20
227.4655957165
 11
176.306410769
 21
227.4655957165
  0
LINE
  5
342
100
AcDbEntity
  8
0
100
AcDbLine
 62
7
  6
CONTINUOUS
 10
28.3425504909
 20
227.4913275519
 11
38.8211979774
 21
227.4913275519
  0
LINE
  5
343
100
AcDbEntity
  8
0
100
AcDbLine
 62
7
  6
CONTINUOUS
 10
140.4271651882
 20
257.5734263262
 11
158.2217481768
 21
229.110218687
  0
LINE
  5
344
100
AcDbEntity
  8
AXIS
100
AcDbLine
 62
2
  6
CENTER
 10
130.2958367376
 20
251.1218104855
 11
102.2122425906
 21
251.1218104855
  0
LINE
  5
345
100
AcDbEntity
  8
AXIS
100
AcDbLine
 62
2
  6
CENTER
 10
70.2958367376
 20
251.1218104855
 11
62.3741619494
 21
251.1218104855
  0
LINE
  5
346
100
AcDbEntity
  8
AXIS
100
AcDbLine
 62
2
  6
CENTER
 10
70.2958367376
 20
251.1218104855
 11
99.0824950604
 21
251.1218104855
  0
LINE
  5
347
100
AcDbEntity
  8
AXIS
100
AcDbLine
 62
2
  6
CENTER
 10
130.2958367376
 20
251.1218104855
 11
140.2958367376
 21
251.1218104855
  0
LINE
  5
348
100
AcDbEntity
  8
0
100
AcDbLine
 62
7
  6
CONTINUOUS
 10
70.8791495177
 20
264.6218104855
 11
127.7082106116
 21
264.6218104855
  0
ARC
  5
349
100
AcDbEntity
  8
0
100
AcDbCircle
 62
7
  6
CONTINUOUS
 10
-25.8965800458
 20
81.0004719855
 40
50.9930639713
100
AcDbArc
 50
325.4861690518
 51
360.0
  0
CIRCLE
  5
34A
100
AcDbEntity
  8
AXIS
100
AcDbCircle
 62
7
  6
CONTINUOUS
 10
80.7958367376
 20
89.3218104855
 40
19.0
  0
ARC
  5
34B
100
AcDbEntity
  8
0
100
AcDbCircle
 62
7
  6
CONTINUOUS
 10
70.8791495177
 20
249.6218104855
 40
15.0
100
AcDbArc
 50
90.0
 51
150.0931053165
  0
ARC
  5
34C
100
AcDbEntity
  8
0
100
AcDbCircle
 62
7
  6
CONTINUOUS
 10
24.3610603754
 20
46.4414871637
 40
10.0
100
AcDbArc
 50
145.4861690518
 51
265.8714668881
  0
ARC
  5
34D
100
AcDbEntity
  8
0
100
AcDbCircle
 62
7
  6
CONTINUOUS
 10
22.2297244211
 20
172.1261485142
 40
7.9261378379
100
AcDbArc
 50
303.863076889
 51
57.6570244212
  0
CIRCLE
  5
34E
100
AcDbEntity
  8
AXIS
100
AcDbCircle
 62
7
  6
CONTINUOUS
 10
25.2958367376
 20
47.1218104855
 40
6.0
  0
CIRCLE
  5
34F
100
AcDbEntity
  8
AXIS
100
AcDbCircle
 62
7
  6
CONTINUOUS
 10
70.2958367376
 20
251.1218104855
 40
6.0
  0
CIRCLE
  5
350
100
AcDbEntity
  8
AXIS
100
AcDbCircle
 62
7
  6
CONTINUOUS
 10
35.2958367376
 20
215.1218104855
 40
6.0
  0
ARC
  5
351
100
AcDbEntity
  8
0
100
AcDbCircle
 62
7
  6
CONTINUOUS
 10
28.5964839256
 20
162.6382088378
 40
3.5
100
AcDbArc
 50
123.863076889
 51
180.0
  0
ARC
  5
352
100
AcDbEntity
  8
0
100
AcDbCircle
 62
7
  6
CONTINUOUS
 10
28.3425504909
 20
181.7796444266
 40
3.5
100
AcDbArc
 50
180.0
 51
237.6570244212
  0
ARC
  5
353
100
AcDbEntity
  8
0
100
AcDbCircle
 62
7
  6
CONTINUOUS
 10
28.3425504909
 20
223.9913275519
 40
3.5
100
AcDbArc
 50
90.0
 51
180.0
  0
ARC
  5
354
100
AcDbEntity
  8
0
100
AcDbCircle
 62
7
  6
CONTINUOUS
 10
38.8211979774
 20
230.9913275519
 40
3.5
100
AcDbArc
 50
270.0
 51
330.0931053165
  0
CIRCLE
  5
355
100
AcDbEntity
  8
AXIS
100
AcDbCircle
 62
7
  6
CONTINUOUS
 10
64.9940120476
 20
189.2223890632
 40
3.4
  0
CIRCLE
  5
356
100
AcDbEntity
  8
AXIS
100
AcDbCircle
 62
7
  6
CONTINUOUS
 10
65.5072638114
 20
130.4095622744
 40
3.4
  0
CIRCLE
  5
357
100
AcDbEntity
  8
AXIS
100
AcDbCircle
 62
2
  6
CENTER
 10
100.2958367376
 20
160.1218104855
 40
45.75
  0
ARC
  5
358
100
AcDbEntity
  8
0
100
AcDbCircle
 62
7
  6
CONTINUOUS
 10
100.2958367376
 20
160.1218104855
 40
40.874819363
100
AcDbArc
 50
295.4217060769
 51
284.7592843464
  0
ARC
  5
359
100
AcDbEntity
  8
0
100
AcDbCircle
 62
7
  6
CONTINUOUS
 10
213.7363510939
 20
79.6575684346
 40
38.5658778105
100
AcDbArc
 50
199.4359043448
 51
218.6047646891
  0
ARC
  5
35A
100
AcDbEntity
  8
0
100
AcDbCircle
 62
7
  6
CONTINUOUS
 10
205.6586056183
 20
76.8072542948
 40
30.0
100
AcDbArc
 50
180.2922782937
 51
199.4359043448
  0
ARC
  5
35B
100
AcDbEntity
  8
0
100
AcDbCircle
 62
7
  6
CONTINUOUS
 10
127.7082106116
 20
249.6218104855
 40
15.0
100
AcDbArc
 50
32.012733506
 51
90.0
  0
ARC
  5
35C
100
AcDbEntity
  8
0
100
AcDbCircle
 62
7
  6
CONTINUOUS
 10
174.2207059506
 20
48.1072627681
 40
12.0
100
AcDbArc
 50
273.8766922779
 51
38.6047646891
  0
ARC
  5
35D
100
AcDbEntity
  8
0
100
AcDbCircle
 62
7
  6
CONTINUOUS
 10
167.4810751509
 20
94.3784622142
 40
11.0
100
AcDbArc
 50
328.1473793845
 51
32.6368975035
  0
ARC
  5
35E
100
AcDbEntity
  8
0
100
AcDbCircle
 62
7
  6
CONTINUOUS
 10
183.4810751509
 20
104.6254129801
 40
8.0
100
AcDbArc
 50
180.0
 51
212.6368975036
  0
ARC
  5
35F
100
AcDbEntity
  8
0
100
AcDbCircle
 62
7
  6
CONTINUOUS
 10
183.6198343109
 20
84.3514759883
 40
8.0
100
AcDbArc
 50
148.1473793845
 51
180.2922782937
  0
ARC
  5
360
100
AcDbEntity
  8
0
100
AcDbCircle
 62
7
  6
CONTINUOUS
 10
181.4810751509
 20
203.3580761257
 40
6.0
100
AcDbArc
 50
123.0042684955
 51
180.0
  0
CIRCLE
  5
361
100
AcDbEntity
  8
AXIS
100
AcDbCircle
 62
7
  6
CONTINUOUS
 10
175.2958367376
 20
47.1218104855
 40
6.0
  0
CIRCLE
  5
362
100
AcDbEntity
  8
AXIS
100
AcDbCircle
 62
7
  6
CONTINUOUS
 10
130.2958367376
 20
251.1218104855
 40
6.0
  0
CIRCLE
  5
363
100
AcDbEntity
  8
AXIS
100
AcDbCircle
 62
7
  6
CONTINUOUS
 10
165.2958367376
 20
215.1218104855
 40
6.0
  0
CIRCLE
  5
364
100
AcDbEntity
  8
AXIS
100
AcDbCircle
 62
7
  6
CONTINUOUS
 10
127.2958367376
 20
44.6218104855
 40
6.0
  0
ARC
  5
365
100
AcDbEntity
  8
0
100
AcDbCircle
 62
7
  6
CONTINUOUS
 10
114.9712500297
 20
119.995800774
 40
3.8
100
AcDbArc
 50
200.1287785966
 51
20.1287785966
  0
ARC
  5
366
100
AcDbEntity
  8
0
100
AcDbCircle
 62
7
  6
CONTINUOUS
 10
161.1895042446
 20
230.9655957165
 40
3.5
100
AcDbArc
 50
212.012733506
 51
270.0
  0
ARC
  5
367
100
AcDbEntity
  8
0
100
AcDbCircle
 62
7
  6
CONTINUOUS
 10
176.306410769
 20
223.9655957165
 40
3.5
100
AcDbArc
 50
0.0
 51
90.0
  0
ARC
  5
368
100
AcDbEntity
  8
0
100
AcDbCircle
 62
7
  6
CONTINUOUS
 10
176.306410769
 20
211.3250610345
 40
3.5
100
AcDbArc
 50
303.0042684955
 51
360.0
  0
CIRCLE
  5
369
100
AcDbEntity
  8
AXIS
100
AcDbCircle
 62
7
  6
CONTINUOUS
 10
143.421684955
 20
144.8501466755
 40
3.4
  0
CIRCLE
  5
36A
100
AcDbEntity
  8
AXIS
100
AcDbCircle
 62
7
  6
CONTINUOUS
 10
122.8242146123
 20
199.9405835747
 40
3.4
  0
ARC
  5
36B
100
AcDbEntity
  8
0
100
AcDbCircle
 62
7
  6
CONTINUOUS
 10
101.7140429032
 20
1118.0875504946
 40
1084.4341622261
100
AcDbArc
 50
265.8714668881
 51
273.8766922779
  0
ENDSEC
  0
SECTION
  2
OBJECTS
  0
DICTIONARY
  5
36C
100
AcDbDictionary
  3
ACAD_GROUP
350
36D
  3
ACAD_MLINESTYLE
350
36E
  0
DICTIONARY
  5
36D
102
{ACAD_REACTORS
330
36C
102
}
100
AcDbDictionary
  0
DICTIONARY
  5
36E
102
{ACAD_REACTORS
330
36C
102
}
100
AcDbDictionary
  3
STANDARD
350
36F
  0
MLINESTYLE
  5
36F
102
{ACAD_REACTORS
330
36E
102
}
100
AcDbMlineStyle
  2
STANDARD
 70
0
  3

 62
256
 51
90.0
 52
90.0
 71
2
 49
0.5
 62
256
  6
BYLAYER
 49
-0.5
 62
256
  6
BYLAYER
  0
ENDSEC
  0
EOF
